<?xml version="1.0" standalone="no"?>
<!DOCTYPE svg PUBLIC "-//W3C//DTD SVG 1.1//EN" "http://www.w3.org/Graphics/SVG/1.1/DTD/svg11.dtd" >
<svg xmlns="http://www.w3.org/2000/svg">
<metadata>Generated by IcoMoon</metadata>
<defs>
<font id="vcv-linear" horiz-adv-x="1024">
<font-face units-per-em="1024" ascent="960" descent="-64" />
<missing-glyph horiz-adv-x="1024" />
<glyph unicode="&#x20;" horiz-adv-x="512" d="" />
<glyph unicode="&#xe900;" glyph-name="alarm" d="M860.16 186.829c-58.573 43.981-92.16 111.206-92.16 184.371v153.6c0 128.666-86.733 237.466-204.8 270.95v36.25c0 42.342-34.458 76.8-76.8 76.8s-76.8-34.458-76.8-76.8v-36.25c-118.067-33.536-204.8-142.285-204.8-270.95v-153.6c0-73.165-33.587-140.339-92.16-184.371-8.806-6.605-12.39-18.125-8.909-28.57s13.261-17.51 24.269-17.51h232.96c-1.69-8.397-2.611-16.947-2.611-25.6 0-70.554 57.446-128 128-128s128 57.446 128 128c0 8.602-0.87 17.203-2.56 25.6h232.96c11.008 0 20.787 7.066 24.269 17.51s-0.102 21.965-8.909 28.57zM460.8 832c0 14.131 11.469 25.6 25.6 25.6s25.6-11.469 25.6-25.6v-26.778c-8.448 0.768-16.947 1.178-25.6 1.178s-17.152-0.41-25.6-1.178v26.778zM563.2 115.2c0-42.342-34.458-76.8-76.8-76.8s-76.8 34.458-76.8 76.8c0 8.755 1.536 17.408 4.403 25.6h144.794c2.867-8.192 4.403-16.845 4.403-25.6zM191.59 192c13.056 15.821 24.422 33.075 33.741 51.251 20.378 39.834 30.669 82.893 30.669 127.949v153.6c0 127.027 103.373 230.4 230.4 230.4s230.4-103.373 230.4-230.4v-153.6c0-45.056 10.342-88.115 30.669-127.949 9.318-18.227 20.685-35.43 33.741-51.251h-589.67z" />
<glyph unicode="&#xe901;" glyph-name="apartment" d="M716.8 652.8h51.2v-51.2h-51.2v51.2zM716.8 550.4h51.2v-51.2h-51.2v51.2zM716.8 448h51.2v-51.2h-51.2v51.2zM716.8 345.6h51.2v-51.2h-51.2v51.2zM716.8 140.8h51.2v-51.2h-51.2v51.2zM716.8 243.2h51.2v-51.2h-51.2v51.2zM307.2 652.8h51.2v-51.2h-51.2v51.2zM307.2 550.4h51.2v-51.2h-51.2v51.2zM307.2 448h51.2v-51.2h-51.2v51.2zM307.2 345.6h51.2v-51.2h-51.2v51.2zM307.2 140.8h51.2v-51.2h-51.2v51.2zM307.2 243.2h51.2v-51.2h-51.2v51.2zM204.8 652.8h51.2v-51.2h-51.2v51.2zM204.8 550.4h51.2v-51.2h-51.2v51.2zM204.8 448h51.2v-51.2h-51.2v51.2zM204.8 345.6h51.2v-51.2h-51.2v51.2zM204.8 140.8h51.2v-51.2h-51.2v51.2zM204.8 243.2h51.2v-51.2h-51.2v51.2zM409.6 652.8h51.2v-51.2h-51.2v51.2zM409.6 550.4h51.2v-51.2h-51.2v51.2zM409.6 448h51.2v-51.2h-51.2v51.2zM409.6 345.6h51.2v-51.2h-51.2v51.2zM409.6 140.8h51.2v-51.2h-51.2v51.2zM409.6 243.2h51.2v-51.2h-51.2v51.2zM947.2-12.8h-25.6v691.2c0 39.066-29.030 79.309-66.099 91.699l-241.101 80.384v83.968c0 8.090-3.84 15.718-10.342 20.531s-14.899 6.298-22.63 3.994l-462.95-138.906c-37.734-11.315-67.277-51.046-67.277-90.419v-742.4h-25.6c-14.131 0-25.6-11.469-25.6-25.6s11.469-25.6 25.6-25.6h921.6c14.131 0 25.6 11.469 25.6 25.6s-11.469 25.6-25.6 25.6zM839.322 721.51c16.282-5.427 31.078-25.958 31.078-43.11v-691.2h-256v809.267l224.922-74.957zM102.4 729.6c0 16.845 14.694 36.557 30.822 41.37l429.978 129.024v-912.794h-460.8v742.4z" />
<glyph unicode="&#xe902;" glyph-name="arrow-down-circle" d="M830.362 78.438c91.853 91.853 142.438 214.016 142.438 343.962s-50.586 252.058-142.438 343.91-214.016 142.438-343.962 142.438-252.058-50.586-343.962-142.438-142.438-214.016-142.438-343.91 50.586-252.058 142.438-343.962 214.016-142.438 343.962-142.438 252.058 50.586 343.962 142.438zM51.2 422.4c0 239.974 195.226 435.2 435.2 435.2s435.2-195.226 435.2-435.2c0-239.974-195.226-435.2-435.2-435.2s-435.2 195.226-435.2 435.2zM504.474 122.726l204.8 204.8c9.984 9.984 9.984 26.214 0 36.198s-26.214 9.984-36.198 0l-161.075-161.126v527.002c0 14.131-11.469 25.6-25.6 25.6s-25.6-11.469-25.6-25.6v-527.002l-161.126 161.075c-9.984 9.984-26.214 9.984-36.198 0-5.018-5.018-7.475-11.571-7.475-18.074s2.509-13.107 7.526-18.074l204.8-204.8c9.984-9.984 26.214-9.984 36.198 0z" />
<glyph unicode="&#xe903;" glyph-name="arrow-down" d="M504.525-30.925l307.2 307.2c9.984 9.984 9.984 26.214 0 36.198s-26.214 9.984-36.198 0l-263.475-263.475v834.202c0 14.131-11.469 25.6-25.6 25.6s-25.6-11.469-25.6-25.6v-834.202l-263.475 263.475c-9.984 9.984-26.214 9.984-36.198 0-5.018-5.018-7.475-11.571-7.475-18.125s2.509-13.107 7.475-18.125l307.2-307.2c9.984-9.984 26.214-9.984 36.198 0z" />
<glyph unicode="&#xe904;" glyph-name="arrow-left-circle" d="M142.438 766.362c91.853 91.853 214.016 142.438 343.962 142.438s252.058-50.586 343.962-142.438 142.438-214.016 142.438-343.91-50.586-252.058-142.438-343.962-214.016-142.438-343.962-142.438-252.058 50.586-343.962 142.438-142.438 214.016-142.438 343.962 50.586 252.058 142.438 343.91zM486.4-12.8c239.974 0 435.2 195.226 435.2 435.2s-195.226 435.2-435.2 435.2c-239.974 0-435.2-195.226-435.2-435.2s195.226-435.2 435.2-435.2zM186.726 440.474l204.8 204.8c9.984 9.984 26.214 9.984 36.198 0s9.984-26.214 0-36.198l-161.126-161.075h527.002c14.131 0 25.6-11.469 25.6-25.6s-11.469-25.6-25.6-25.6h-527.002l161.075-161.126c9.984-9.984 9.984-26.214 0-36.198-5.018-5.018-11.571-7.475-18.074-7.475s-13.107 2.509-18.074 7.526l-204.8 204.8c-9.984 9.984-9.984 26.214 0 36.198z" />
<glyph unicode="&#xe905;" glyph-name="arrow-left" d="M33.075 440.525l307.2 307.2c9.984 9.984 26.214 9.984 36.198 0s9.984-26.214 0-36.198l-263.475-263.475h834.202c14.131 0 25.6-11.469 25.6-25.6s-11.469-25.6-25.6-25.6h-834.202l263.475-263.475c9.984-9.984 9.984-26.214 0-36.198-5.018-5.018-11.571-7.475-18.125-7.475s-13.107 2.509-18.125 7.475l-307.2 307.2c-9.984 9.984-9.984 26.214 0 36.198z" />
<glyph unicode="&#xe906;" glyph-name="arrow-right-circle" d="M830.362 766.362c-91.853 91.853-214.016 142.438-343.962 142.438s-252.058-50.586-343.962-142.438-142.438-214.016-142.438-343.91 50.586-252.058 142.438-343.962 214.016-142.438 343.962-142.438 252.058 50.586 343.962 142.438 142.438 214.016 142.438 343.962-50.586 252.058-142.438 343.91zM486.4-12.8c-239.974 0-435.2 195.226-435.2 435.2s195.226 435.2 435.2 435.2c239.974 0 435.2-195.226 435.2-435.2s-195.226-435.2-435.2-435.2zM786.074 440.474l-204.8 204.8c-9.984 9.984-26.214 9.984-36.198 0s-9.984-26.214 0-36.198l161.126-161.075h-527.002c-14.131 0-25.6-11.469-25.6-25.6s11.469-25.6 25.6-25.6h527.002l-161.075-161.126c-9.984-9.984-9.984-26.214 0-36.198 5.018-5.018 11.571-7.475 18.074-7.475s13.107 2.509 18.074 7.526l204.8 204.8c9.984 9.984 9.984 26.214 0 36.198z" />
<glyph unicode="&#xe907;" glyph-name="arrow-right" d="M990.925 440.525l-307.2 307.2c-9.984 9.984-26.214 9.984-36.198 0s-9.984-26.214 0-36.198l263.475-263.475h-834.202c-14.131 0-25.6-11.469-25.6-25.6s11.469-25.6 25.6-25.6h834.202l-263.475-263.475c-9.984-9.984-9.984-26.214 0-36.198 5.018-5.018 11.571-7.475 18.125-7.475s13.107 2.509 18.125 7.475l307.2 307.2c9.984 9.984 9.984 26.214 0 36.198z" />
<glyph unicode="&#xe908;" glyph-name="arrow-up-circle" d="M142.438 766.362c-91.853-91.853-142.438-214.016-142.438-343.962s50.586-252.058 142.438-343.962 214.016-142.438 343.962-142.438 252.058 50.586 343.962 142.438 142.438 214.016 142.438 343.91-50.586 252.058-142.438 343.962-214.016 142.438-343.962 142.438-252.058-50.586-343.962-142.438zM921.6 422.4c0-239.974-195.226-435.2-435.2-435.2s-435.2 195.226-435.2 435.2c0 239.974 195.226 435.2 435.2 435.2s435.2-195.226 435.2-435.2zM468.326 722.074l-204.8-204.8c-9.984-9.984-9.984-26.214 0-36.198s26.214-9.984 36.198 0l161.075 161.126v-527.002c0-14.131 11.469-25.6 25.6-25.6s25.6 11.469 25.6 25.6v527.002l161.126-161.075c9.984-9.984 26.214-9.984 36.198 0 5.018 5.018 7.475 11.571 7.475 18.074s-2.509 13.107-7.526 18.074l-204.8 204.8c-9.984 9.984-26.214 9.984-36.198 0z" />
<glyph unicode="&#xe909;" glyph-name="arrow-up" d="M468.275 926.925l-307.2-307.2c-9.984-9.984-9.984-26.214 0-36.198s26.214-9.984 36.198 0l263.475 263.475v-834.202c0-14.131 11.469-25.6 25.6-25.6s25.6 11.469 25.6 25.6v834.202l263.475-263.475c9.984-9.984 26.214-9.984 36.198 0 5.018 5.018 7.475 11.571 7.475 18.125s-2.509 13.107-7.475 18.125l-307.2 307.2c-9.984 9.984-26.214 9.984-36.198 0z" />
<glyph unicode="&#xe90a;" glyph-name="bicycle" d="M281.6 499.098c-42.394 0-76.902 34.509-76.902 76.902s34.509 76.902 76.902 76.902 76.902-34.509 76.902-76.902-34.509-76.902-76.902-76.902zM281.6 601.702c-14.182 0-25.702-11.52-25.702-25.702s11.52-25.702 25.702-25.702 25.702 11.52 25.702 25.702-11.52 25.702-25.702 25.702zM486.4 89.6c-14.131 0-25.6 11.469-25.6 25.6v153.498c0 39.526 29.747 79.002 67.789 89.907l76.8 21.965-166.912 111.258-87.552-87.552c-4.813-4.813-11.315-7.475-18.125-7.475h-102.502c-14.131 0-25.6 11.469-25.6 25.6s11.469 25.6 25.6 25.6h91.904l94.925 94.925c8.653 8.653 22.17 9.984 32.307 3.226l187.802-125.184c28.16-18.79 28.058-40.806 26.726-49.459s-7.987-29.645-40.499-38.963l-80.742-23.142c-16.026-4.608-30.669-23.962-30.669-40.704v-153.498c0-14.131-11.469-25.6-25.6-25.6zM768-64c-112.947 0-204.8 91.853-204.8 204.8s91.853 204.8 204.8 204.8 204.8-91.853 204.8-204.8-91.853-204.8-204.8-204.8zM768 294.4c-84.685 0-153.6-68.915-153.6-153.6s68.915-153.6 153.6-153.6 153.6 68.915 153.6 153.6-68.915 153.6-153.6 153.6zM204.749-64c-112.896 0-204.749 91.853-204.749 204.749s91.853 204.749 204.749 204.749 204.749-91.853 204.749-204.749-91.853-204.749-204.749-204.749zM204.749 294.298c-84.685 0-153.549-68.864-153.549-153.549s68.864-153.549 153.549-153.549 153.549 68.864 153.549 153.549-68.864 153.549-153.549 153.549z" />
<glyph unicode="&#xe90b;" glyph-name="bold" d="M512 499.2h-128c-14.131 0-25.6 11.469-25.6 25.6v153.6c0 14.131 11.469 25.6 25.6 25.6h128c56.474 0 102.4-45.926 102.4-102.4s-45.926-102.4-102.4-102.4zM409.6 550.4h102.4c28.211 0 51.2 22.989 51.2 51.2s-22.989 51.2-51.2 51.2h-102.4v-102.4zM563.2 192h-179.2c-14.131 0-25.6 11.469-25.6 25.6v153.6c0 14.131 11.469 25.6 25.6 25.6h179.2c56.474 0 102.4-45.926 102.4-102.4s-45.926-102.4-102.4-102.4zM409.6 243.2h153.6c28.211 0 51.2 22.989 51.2 51.2s-22.989 51.2-51.2 51.2h-153.6v-102.4zM563.2 38.4h-281.6c-42.342 0-76.8 34.458-76.8 76.8v665.6c0 42.342 34.458 76.8 76.8 76.8h230.4c141.158 0 256-114.842 256-256 0-42.189-10.342-83.354-30.054-120.269 51.866-48.384 81.254-115.354 81.254-186.931 0-141.158-114.842-256-256-256zM281.6 806.4c-14.131 0-25.6-11.469-25.6-25.6v-665.6c0-14.131 11.469-25.6 25.6-25.6h281.6c112.947 0 204.8 91.853 204.8 204.8 0 63.334-28.723 122.112-78.797 161.331-10.803 8.448-12.954 23.859-5.12 34.918 21.402 33.075 32.717 71.424 32.717 110.95 0 112.947-91.853 204.8-204.8 204.8h-230.4z" />
<glyph unicode="&#xe90c;" glyph-name="book" d="M742.4 38.4h-512c-14.131 0-25.6 11.469-25.6 25.6s11.469 25.6 25.6 25.6h512c14.131 0 25.6-11.469 25.6-25.6s-11.469-25.6-25.6-25.6zM844.8 806.4c-14.131 0-25.6-11.469-25.6-25.6v-768c0-14.131-11.469-25.6-25.6-25.6h-563.2c-42.342 0-76.8 34.458-76.8 76.8s34.458 76.8 76.8 76.8h460.8c42.342 0 76.8 34.458 76.8 76.8v614.4c0 42.342-34.458 76.8-76.8 76.8h-512c-42.342 0-76.8-34.458-76.8-76.8v-768c0-70.554 57.446-128 128-128h563.2c42.342 0 76.8 34.458 76.8 76.8v768c0 14.131-11.469 25.6-25.6 25.6zM179.2 857.6h512c14.131 0 25.6-11.469 25.6-25.6v-614.4c0-14.131-11.469-25.6-25.6-25.6h-460.8c-28.774 0-55.398-9.574-76.8-25.651v665.651c0 14.131 11.469 25.6 25.6 25.6z" />
<glyph unicode="&#xe90d;" glyph-name="bookmark" d="M793.6-64c-7.322 0-14.49 3.174-19.456 8.96l-287.744 335.718-287.744-335.718c-6.963-8.141-18.278-11.059-28.314-7.373s-16.742 13.312-16.742 24.013v921.6c0 14.131 11.469 25.6 25.6 25.6h614.4c14.131 0 25.6-11.469 25.6-25.6v-921.6c0-10.701-6.656-20.275-16.742-24.013-2.918-1.075-5.888-1.587-8.858-1.587zM486.4 345.6c7.475 0 14.592-3.277 19.456-8.96l262.144-305.869v826.778h-563.2v-826.778l262.144 305.869c4.864 5.683 11.981 8.96 19.456 8.96z" />
<glyph unicode="&#xe90e;" glyph-name="briefcase" d="M947.2 704h-230.4v76.8c0 42.342-34.458 76.8-76.8 76.8h-256c-42.342 0-76.8-34.458-76.8-76.8v-76.8h-230.4c-42.342 0-76.8-34.458-76.8-76.8v-563.2c0-42.342 34.458-76.8 76.8-76.8h870.4c42.342 0 76.8 34.458 76.8 76.8v563.2c0 42.342-34.458 76.8-76.8 76.8zM358.4 780.8c0 14.131 11.469 25.6 25.6 25.6h256c14.131 0 25.6-11.469 25.6-25.6v-76.8h-307.2v76.8zM76.8 652.8h870.4c14.131 0 25.6-11.469 25.6-25.6v-384h-102.4v25.6c0 14.131-11.469 25.6-25.6 25.6h-102.4c-14.131 0-25.6-11.469-25.6-25.6v-25.6h-409.6v25.6c0 14.131-11.469 25.6-25.6 25.6h-102.4c-14.131 0-25.6-11.469-25.6-25.6v-25.6h-102.4v384c0 14.131 11.469 25.6 25.6 25.6zM819.2 243.2v-51.2h-51.2v51.2h51.2zM256 243.2v-51.2h-51.2v51.2h51.2zM947.2 38.4h-870.4c-14.131 0-25.6 11.469-25.6 25.6v128h102.4v-25.6c0-14.131 11.469-25.6 25.6-25.6h102.4c14.131 0 25.6 11.469 25.6 25.6v25.6h409.6v-25.6c0-14.131 11.469-25.6 25.6-25.6h102.4c14.131 0 25.6 11.469 25.6 25.6v25.6h102.4v-128c0-14.131-11.469-25.6-25.6-25.6z" />
<glyph unicode="&#xe90f;" glyph-name="bubble" d="M25.6-12.8c-11.52 0-21.606 7.68-24.678 18.79s1.638 22.886 11.52 28.774c86.579 51.917 122.47 127.437 135.219 162.765-94.106 72.038-147.661 171.725-147.661 276.070 0 52.685 13.21 103.731 39.322 151.757 24.883 45.773 60.416 86.784 105.523 121.907 91.494 71.168 212.787 110.387 341.555 110.387s250.061-39.219 341.555-110.387c45.107-35.072 80.64-76.083 105.523-121.907 26.112-47.974 39.322-99.021 39.322-151.757s-13.21-103.731-39.322-151.757c-24.883-45.773-60.416-86.784-105.523-121.907-91.494-71.168-212.787-110.387-341.555-110.387-52.89 0-104.806 6.605-154.419 19.712-21.965-14.643-63.027-40.602-112.077-65.024-76.186-37.888-141.517-57.088-194.253-57.088zM486.4 806.4c-239.974 0-435.2-149.299-435.2-332.8 0-92.928 51.456-182.374 141.107-245.35 8.806-6.195 12.8-17.203 10.035-27.597-5.99-22.323-26.368-83.61-80.896-142.746 66.662 23.347 138.445 63.846 191.437 100.301 6.298 4.352 14.182 5.632 21.555 3.533 48.538-13.875 99.686-20.941 151.962-20.941 239.974 0 435.2 149.299 435.2 332.8s-195.226 332.8-435.2 332.8z" />
<glyph unicode="&#xe910;" glyph-name="bug" d="M896 345.6h-77.568c-3.174 56.269-16.896 110.234-39.987 158.822 53.043 15.616 91.904 64.717 91.904 122.778 0 14.131-11.469 25.6-25.6 25.6s-25.6-11.469-25.6-25.6c0-38.963-29.184-71.27-66.867-76.134-8.909 13.619-18.688 26.675-29.235 39.014-5.53 6.451-11.213 12.595-17.050 18.534 7.168 22.477 10.752 45.875 10.752 69.786 0 127.027-103.373 230.4-230.4 230.4s-230.4-103.373-230.4-230.4c0-23.91 3.635-47.309 10.752-69.786-5.837-5.939-11.52-12.083-17.050-18.534-10.598-12.339-20.326-25.395-29.235-39.014-37.683 4.864-66.867 37.171-66.867 76.134 0 14.131-11.469 25.6-25.6 25.6s-25.6-11.469-25.6-25.6c0-58.061 38.861-107.162 91.904-122.778-23.091-48.589-36.762-102.554-39.987-158.822h-77.517c-14.131 0-25.6-11.469-25.6-25.6s11.469-25.6 25.6-25.6h77.568c3.174-56.269 16.896-110.234 39.987-158.822-53.043-15.616-91.904-64.717-91.904-122.778 0-14.131 11.469-25.6 25.6-25.6s25.6 11.469 25.6 25.6c0 38.963 29.184 71.27 66.867 76.134 8.909-13.619 18.688-26.675 29.235-39.014 62.976-73.472 146.995-113.92 236.646-113.92s173.722 40.448 236.646 113.92c10.598 12.339 20.326 25.395 29.235 39.014 37.683-4.864 66.867-37.171 66.867-76.134 0-14.131 11.469-25.6 25.6-25.6s25.6 11.469 25.6 25.6c0 58.061-38.861 107.162-91.904 122.778 23.091 48.589 36.762 102.554 39.987 158.822h77.517c14.131 0 25.6 11.469 25.6 25.6s-11.469 25.6-25.6 25.6zM486.4 857.6c98.816 0 179.2-80.384 179.2-179.2 0-11.008-0.973-21.811-2.918-32.461-52.326 37.786-112.896 58.061-176.282 58.061s-123.955-20.224-176.282-58.061c-1.946 10.65-2.918 21.453-2.918 32.461 0 98.816 80.384 179.2 179.2 179.2zM204.8 320c0 173.312 112.691 316.058 256 331.418v-662.835c-143.309 15.36-256 158.106-256 331.418zM512-11.418v662.835c143.309-15.36 256-158.106 256-331.418s-112.691-316.058-256-331.418z" />
<glyph unicode="&#xe911;" glyph-name="bullhorn" d="M992.717 801.331c-29.594 88.832-68.915 107.469-96.717 107.469-0.563 0-1.178 0-1.792-0.051-28.314-0.614-78.643-15.309-154.010-37.427-157.901-46.234-396.493-116.173-637.85-116.173-58.368 0-102.4-77.056-102.4-179.2s44.032-179.2 102.4-179.2c18.893 0 37.786-0.41 56.576-1.229l85.299-339.354c9.728-38.707 48.589-69.018 88.525-69.018h67.226c22.17 0 41.011 9.216 51.61 25.344s11.725 37.018 3.072 57.395l-131.942 309.658c160.563-23.654 308.326-66.97 417.485-98.918 75.366-22.067 125.696-36.813 154.010-37.427 0.614 0 1.178-0.051 1.792-0.051 27.75 0 67.072 18.637 96.717 107.469 20.173 60.57 31.283 140.595 31.283 225.331s-11.11 164.762-31.283 225.331zM819.2 576c0 26.266 1.126 51.968 3.277 76.595 26.266-2.662 47.923-36.659 47.923-76.595s-21.606-73.984-47.923-76.595c-2.15 24.627-3.277 50.33-3.277 76.595zM51.2 576c0 78.131 30.31 128 51.2 128 58.112 0 115.917 3.891 172.442 10.445-12.134-38.81-18.842-86.886-18.842-138.445s6.656-99.635 18.842-138.445c-56.525 6.554-114.33 10.445-172.442 10.445-20.89 0-51.2 49.869-51.2 128zM407.603 49.869c2.099-4.915 1.946-8.192 1.331-9.114s-3.533-2.355-8.909-2.355h-67.226c-16.333 0-34.867 14.438-38.861 30.31l-81.306 323.533c17.152-1.382 34.253-3.021 51.2-4.966l143.77-337.408zM332.237 429.926c-15.565 35.174-25.037 89.498-25.037 146.074 0 57.446 9.216 110.746 24.986 146.022 163.072 24.218 312.115 67.84 422.4 100.198 21.248 6.246 41.523 12.186 59.955 17.357-5.274-11.008-10.394-23.706-15.258-38.246-20.173-60.57-31.283-140.595-31.283-225.331s11.11-164.762 31.283-225.331c4.864-14.541 9.984-27.238 15.258-38.246-18.432 5.171-38.707 11.11-59.955 17.357-110.336 32.307-259.328 75.981-422.4 100.198zM944.128 366.848c-19.098-57.344-39.834-72.448-48.128-72.448s-29.030 15.155-48.128 72.448c-8.038 24.064-14.49 51.661-19.2 81.715 24.883 2.867 48.282 16.947 65.331 39.68 17.818 23.757 27.597 54.938 27.597 87.757s-9.83 64.051-27.597 87.757c-17.050 22.733-40.448 36.813-65.331 39.68 4.762 30.003 11.213 57.651 19.2 81.715 19.098 57.344 39.834 72.499 48.128 72.499s29.030-15.155 48.128-72.448c18.483-55.501 28.672-129.741 28.672-209.152s-10.189-153.651-28.672-209.152z" />
<glyph unicode="&#xe912;" glyph-name="bus" d="M281.6 140.8c-42.342 0-76.8 34.458-76.8 76.8s34.458 76.8 76.8 76.8 76.8-34.458 76.8-76.8-34.458-76.8-76.8-76.8zM281.6 243.2c-14.131 0-25.6-11.469-25.6-25.6s11.469-25.6 25.6-25.6 25.6 11.469 25.6 25.6-11.469 25.6-25.6 25.6zM742.4 140.8c-42.342 0-76.8 34.458-76.8 76.8s34.458 76.8 76.8 76.8 76.8-34.458 76.8-76.8-34.458-76.8-76.8-76.8zM742.4 243.2c-14.131 0-25.6-11.469-25.6-25.6s11.469-25.6 25.6-25.6 25.6 11.469 25.6 25.6-11.469 25.6-25.6 25.6zM691.2 704h-358.4c-14.131 0-25.6 11.469-25.6 25.6s11.469 25.6 25.6 25.6h358.4c14.131 0 25.6-11.469 25.6-25.6s-11.469-25.6-25.6-25.6zM793.6 652.8h-563.2c-14.131 0-25.6-11.469-25.6-25.6v-256c0-14.131 11.469-25.6 25.6-25.6h255.898c0.051 0 0.051 0 0.102 0s0.051 0 0.102 0h255.795c0.051 0 0.051 0 0.102 0s0.051 0 0.102 0h51.098c14.131 0 25.6 11.469 25.6 25.6v256c0 14.131-11.469 25.6-25.6 25.6zM256 601.6h512v-204.8h-17.869l-147.149 98.099c-11.776 7.834-27.648 4.659-35.482-7.117s-4.659-27.648 7.117-35.482l83.251-55.501h-163.686l-147.149 98.099c-11.776 7.834-27.648 4.659-35.482-7.117s-4.659-27.648 7.117-35.482l83.251-55.501h-145.869v204.8zM799.539 868.71c-69.786 26.573-166.554 40.090-287.539 40.090s-217.702-13.466-287.539-40.090c-100.915-38.451-122.061-96.87-122.061-139.11v-563.2c0-61.798 44.032-113.51 102.4-125.44v-53.76c0-28.211 22.989-51.2 51.2-51.2h51.2c28.211 0 51.2 22.989 51.2 51.2v51.2h307.2v-51.2c0-28.211 22.989-51.2 51.2-51.2h51.2c28.211 0 51.2 22.989 51.2 51.2v53.76c58.368 11.878 102.4 63.59 102.4 125.44v563.2c0 42.24-21.197 100.659-122.061 139.11zM307.2-12.8h-51.2v51.2h51.2v-51.2zM716.8-12.8v51.2h51.2v-51.2h-51.2zM870.4 166.4c0-42.342-34.458-76.8-76.8-76.8h-563.2c-42.342 0-76.8 34.458-76.8 76.8v563.2c0 38.042 30.003 68.762 89.139 91.29 63.078 24.013 156.16 36.71 269.261 36.71s206.234-12.698 269.261-36.71c59.136-22.528 89.139-53.248 89.139-91.29v-563.2z" />
<glyph unicode="&#xe913;" glyph-name="calendar-full" d="M947.2 857.6h-128v25.6c0 14.131-11.469 25.6-25.6 25.6s-25.6-11.469-25.6-25.6v-25.6h-512v25.6c0 14.131-11.469 25.6-25.6 25.6s-25.6-11.469-25.6-25.6v-25.6h-128c-42.342 0-76.8-34.458-76.8-76.8v-716.8c0-42.342 34.458-76.8 76.8-76.8h870.4c42.342 0 76.8 34.458 76.8 76.8v716.8c0 42.342-34.458 76.8-76.8 76.8zM76.8 806.4h128v-76.8c0-14.131 11.469-25.6 25.6-25.6s25.6 11.469 25.6 25.6v76.8h512v-76.8c0-14.131 11.469-25.6 25.6-25.6s25.6 11.469 25.6 25.6v76.8h128c14.131 0 25.6-11.469 25.6-25.6v-128h-921.6v128c0 14.131 11.469 25.6 25.6 25.6zM947.2 38.4h-870.4c-14.131 0-25.6 11.469-25.6 25.6v537.6h921.6v-537.6c0-14.131-11.469-25.6-25.6-25.6zM384 448h-51.2c-14.131 0-25.6 11.469-25.6 25.6s11.469 25.6 25.6 25.6h51.2c14.131 0 25.6-11.469 25.6-25.6s-11.469-25.6-25.6-25.6zM537.6 448h-51.2c-14.131 0-25.6 11.469-25.6 25.6s11.469 25.6 25.6 25.6h51.2c14.131 0 25.6-11.469 25.6-25.6s-11.469-25.6-25.6-25.6zM691.2 448h-51.2c-14.131 0-25.6 11.469-25.6 25.6s11.469 25.6 25.6 25.6h51.2c14.131 0 25.6-11.469 25.6-25.6s-11.469-25.6-25.6-25.6zM844.8 448h-51.2c-14.131 0-25.6 11.469-25.6 25.6s11.469 25.6 25.6 25.6h51.2c14.131 0 25.6-11.469 25.6-25.6s-11.469-25.6-25.6-25.6zM230.4 345.6h-51.2c-14.131 0-25.6 11.469-25.6 25.6s11.469 25.6 25.6 25.6h51.2c14.131 0 25.6-11.469 25.6-25.6s-11.469-25.6-25.6-25.6zM384 345.6h-51.2c-14.131 0-25.6 11.469-25.6 25.6s11.469 25.6 25.6 25.6h51.2c14.131 0 25.6-11.469 25.6-25.6s-11.469-25.6-25.6-25.6zM537.6 345.6h-51.2c-14.131 0-25.6 11.469-25.6 25.6s11.469 25.6 25.6 25.6h51.2c14.131 0 25.6-11.469 25.6-25.6s-11.469-25.6-25.6-25.6zM691.2 345.6h-51.2c-14.131 0-25.6 11.469-25.6 25.6s11.469 25.6 25.6 25.6h51.2c14.131 0 25.6-11.469 25.6-25.6s-11.469-25.6-25.6-25.6zM844.8 345.6h-51.2c-14.131 0-25.6 11.469-25.6 25.6s11.469 25.6 25.6 25.6h51.2c14.131 0 25.6-11.469 25.6-25.6s-11.469-25.6-25.6-25.6zM230.4 243.2h-51.2c-14.131 0-25.6 11.469-25.6 25.6s11.469 25.6 25.6 25.6h51.2c14.131 0 25.6-11.469 25.6-25.6s-11.469-25.6-25.6-25.6zM384 243.2h-51.2c-14.131 0-25.6 11.469-25.6 25.6s11.469 25.6 25.6 25.6h51.2c14.131 0 25.6-11.469 25.6-25.6s-11.469-25.6-25.6-25.6zM537.6 243.2h-51.2c-14.131 0-25.6 11.469-25.6 25.6s11.469 25.6 25.6 25.6h51.2c14.131 0 25.6-11.469 25.6-25.6s-11.469-25.6-25.6-25.6zM691.2 243.2h-51.2c-14.131 0-25.6 11.469-25.6 25.6s11.469 25.6 25.6 25.6h51.2c14.131 0 25.6-11.469 25.6-25.6s-11.469-25.6-25.6-25.6zM844.8 243.2h-51.2c-14.131 0-25.6 11.469-25.6 25.6s11.469 25.6 25.6 25.6h51.2c14.131 0 25.6-11.469 25.6-25.6s-11.469-25.6-25.6-25.6zM230.4 140.8h-51.2c-14.131 0-25.6 11.469-25.6 25.6s11.469 25.6 25.6 25.6h51.2c14.131 0 25.6-11.469 25.6-25.6s-11.469-25.6-25.6-25.6zM384 140.8h-51.2c-14.131 0-25.6 11.469-25.6 25.6s11.469 25.6 25.6 25.6h51.2c14.131 0 25.6-11.469 25.6-25.6s-11.469-25.6-25.6-25.6zM537.6 140.8h-51.2c-14.131 0-25.6 11.469-25.6 25.6s11.469 25.6 25.6 25.6h51.2c14.131 0 25.6-11.469 25.6-25.6s-11.469-25.6-25.6-25.6zM691.2 140.8h-51.2c-14.131 0-25.6 11.469-25.6 25.6s11.469 25.6 25.6 25.6h51.2c14.131 0 25.6-11.469 25.6-25.6s-11.469-25.6-25.6-25.6zM844.8 140.8h-51.2c-14.131 0-25.6 11.469-25.6 25.6s11.469 25.6 25.6 25.6h51.2c14.131 0 25.6-11.469 25.6-25.6s-11.469-25.6-25.6-25.6z" />
<glyph unicode="&#xe914;" glyph-name="camera-video" d="M979.507 86.886c0 0 0 0 0 0-12.39 0-24.832 4.966-37.069 14.746l-176.026 140.851c-28.262 22.63-49.613 66.97-49.613 103.168v153.6c0 36.198 21.299 80.538 49.613 103.168l176.026 140.851c12.237 9.779 24.678 14.746 37.069 14.746 22.17 0 44.493-16.691 44.493-53.914v-563.2c0-14.234-3.277-26.214-9.728-35.533-8.038-11.674-20.736-18.381-34.765-18.381zM972.8 701.952l-174.438-139.52c-15.872-12.698-30.362-42.854-30.362-63.181v-153.6c0-20.378 14.49-50.483 30.362-63.181l174.438-139.52v559.053zM588.8 89.6h-512c-42.342 0-76.8 34.458-76.8 76.8v512c0 42.342 34.458 76.8 76.8 76.8h512c42.342 0 76.8-34.458 76.8-76.8v-512c0-42.342-34.458-76.8-76.8-76.8zM76.8 704c-14.131 0-25.6-11.469-25.6-25.6v-512c0-14.131 11.469-25.6 25.6-25.6h512c14.131 0 25.6 11.469 25.6 25.6v512c0 14.131-11.469 25.6-25.6 25.6h-512z" />
<glyph unicode="&#xe915;" glyph-name="camera" d="M486.4 192c-127.027 0-230.4 103.373-230.4 230.4s103.373 230.4 230.4 230.4c127.027 0 230.4-103.373 230.4-230.4s-103.373-230.4-230.4-230.4zM486.4 601.6c-98.816 0-179.2-80.384-179.2-179.2s80.384-179.2 179.2-179.2 179.2 80.384 179.2 179.2-80.384 179.2-179.2 179.2zM896 38.4h-819.2c-42.342 0-76.8 34.458-76.8 76.8v512c0 42.342 34.458 76.8 76.8 76.8h76.8c21.248 0 54.272 13.67 69.325 28.723l30.003 30.003c24.934 24.934 70.298 43.725 105.523 43.725h256c35.226 0 80.589-18.79 105.523-43.725l30.003-30.003c15.002-15.002 48.077-28.723 69.325-28.723h76.8c42.342 0 76.8-34.458 76.8-76.8v-512c0-42.342-34.458-76.8-76.8-76.8zM76.8 652.8c-14.131 0-25.6-11.469-25.6-25.6v-512c0-14.131 11.469-25.6 25.6-25.6h819.2c14.131 0 25.6 11.469 25.6 25.6v512c0 14.131-11.469 25.6-25.6 25.6h-76.8c-35.226 0-80.589 18.79-105.523 43.725l-30.003 30.003c-15.002 15.002-48.077 28.723-69.325 28.723h-256c-21.248 0-54.272-13.67-69.325-28.723l-30.003-30.003c-24.934-24.934-70.246-43.725-105.523-43.725h-76.8z" />
<glyph unicode="&#xe916;" glyph-name="car" d="M281.6 140.8c-42.342 0-76.8 34.458-76.8 76.8s34.458 76.8 76.8 76.8 76.8-34.458 76.8-76.8-34.458-76.8-76.8-76.8zM281.6 243.2c-14.131 0-25.6-11.469-25.6-25.6s11.469-25.6 25.6-25.6 25.6 11.469 25.6 25.6-11.469 25.6-25.6 25.6zM742.4 140.8c-42.342 0-76.8 34.458-76.8 76.8s34.458 76.8 76.8 76.8 76.8-34.458 76.8-76.8-34.458-76.8-76.8-76.8zM742.4 243.2c-14.131 0-25.6-11.469-25.6-25.6s11.469-25.6 25.6-25.6 25.6 11.469 25.6 25.6-11.469 25.6-25.6 25.6zM868.25 350.362c-6.656 40.55-28.314 164.557-51.763 211.507-15.616 31.232-55.706 55.142-119.091 70.963-51.507 12.851-117.35 19.968-185.395 19.968s-133.888-7.066-185.395-19.968c-63.386-15.872-103.475-39.731-119.091-70.963-23.45-46.899-45.107-170.957-51.763-211.507-35.789-24.525-53.35-60.006-53.35-107.162v-128c0-33.382 21.402-61.85 51.2-72.397v-55.603c0-28.211 22.989-51.2 51.2-51.2h51.2c28.211 0 51.2 22.989 51.2 51.2v51.2h409.6v-51.2c0-28.211 22.989-51.2 51.2-51.2h51.2c28.211 0 51.2 22.989 51.2 51.2v55.603c29.798 10.547 51.2 39.014 51.2 72.397v128c0 47.155-17.562 82.637-53.35 107.162zM253.286 538.931c15.206 30.362 111.002 62.669 258.714 62.669s243.507-32.256 258.714-62.669c14.694-29.44 31.027-107.315 41.114-162.97-5.018 1.485-10.189 2.867-15.514 4.096-13.67 3.226-28.416 5.837-44.186 7.987l-148.429 106.342c-11.469 8.243-27.494 5.581-35.738-5.888s-5.581-27.494 5.888-35.738l80.179-57.446c-43.52 1.434-91.238 1.434-142.080 1.434-5.99 0-11.93 0-17.869 0l-147.149 98.099c-11.776 7.834-27.648 4.659-35.482-7.117s-4.659-27.648 7.117-35.482l84.173-56.115c-68.659-1.229-128.358-4.966-175.104-16.077-5.325-1.28-10.496-2.662-15.514-4.096 10.138 55.654 26.419 133.53 41.165 162.97zM256-12.8h-51.2v51.2h51.2v-51.2zM768-12.8v51.2h51.2v-51.2h-51.2zM870.4 115.2c0-14.131-11.469-25.6-25.6-25.6h-665.6c-14.131 0-25.6 11.469-25.6 25.6v128c0 47.309 24.883 72.55 85.914 87.091 64.256 15.309 160.768 15.309 272.486 15.309s208.179 0 272.486-15.309c61.030-14.541 85.914-39.782 85.914-87.091v-128z" />
<glyph unicode="&#xe917;" glyph-name="cart" d="M409.6-64c-56.474 0-102.4 45.926-102.4 102.4s45.926 102.4 102.4 102.4 102.4-45.926 102.4-102.4-45.926-102.4-102.4-102.4zM409.6 89.6c-28.211 0-51.2-22.989-51.2-51.2s22.989-51.2 51.2-51.2 51.2 22.989 51.2 51.2-22.989 51.2-51.2 51.2zM768-64c-56.474 0-102.4 45.926-102.4 102.4s45.926 102.4 102.4 102.4 102.4-45.926 102.4-102.4-45.926-102.4-102.4-102.4zM768 89.6c-28.211 0-51.2-22.989-51.2-51.2s22.989-51.2 51.2-51.2 51.2 22.989 51.2 51.2-22.989 51.2-51.2 51.2zM897.997 731.29c-12.851 15.206-32.256 23.91-53.197 23.91h-626.842l-5.069 30.515c-6.707 40.294-43.981 71.885-84.89 71.885h-51.2c-14.131 0-25.6-11.469-25.6-25.6s11.469-25.6 25.6-25.6h51.2c15.718 0 31.795-13.619 34.355-29.133l85.555-513.382c6.707-40.294 43.981-71.885 84.89-71.885h512c14.131 0 25.6 11.469 25.6 25.6s-11.469 25.6-25.6 25.6h-512c-15.718 0-31.795 13.619-34.355 29.133l-12.646 75.776 510.208 44.39c39.68 3.43 75.93 36.915 82.483 76.237l34.355 206.182c3.43 20.685-1.946 41.267-14.797 56.422zM862.31 683.315l-34.355-206.182c-2.714-16.179-20.019-32.205-36.403-33.638l-514.202-44.698-50.893 305.254h618.291c5.99 0 11.008-2.048 14.131-5.786s4.352-9.011 3.379-14.899z" />
<glyph unicode="&#xe918;" glyph-name="chart-bars" d="M896-64h-819.2c-42.342 0-76.8 34.458-76.8 76.8v819.2c0 42.342 34.458 76.8 76.8 76.8h819.2c42.342 0 76.8-34.458 76.8-76.8v-819.2c0-42.342-34.458-76.8-76.8-76.8zM76.8 857.6c-14.131 0-25.6-11.469-25.6-25.6v-819.2c0-14.131 11.469-25.6 25.6-25.6h819.2c14.131 0 25.6 11.469 25.6 25.6v819.2c0 14.131-11.469 25.6-25.6 25.6h-819.2zM332.8 89.6h-102.4c-14.131 0-25.6 11.469-25.6 25.6v460.8c0 14.131 11.469 25.6 25.6 25.6h102.4c14.131 0 25.6-11.469 25.6-25.6v-460.8c0-14.131-11.469-25.6-25.6-25.6zM256 140.8h51.2v409.6h-51.2v-409.6zM537.6 89.6h-102.4c-14.131 0-25.6 11.469-25.6 25.6v614.4c0 14.131 11.469 25.6 25.6 25.6h102.4c14.131 0 25.6-11.469 25.6-25.6v-614.4c0-14.131-11.469-25.6-25.6-25.6zM460.8 140.8h51.2v563.2h-51.2v-563.2zM742.4 89.6h-102.4c-14.131 0-25.6 11.469-25.6 25.6v256c0 14.131 11.469 25.6 25.6 25.6h102.4c14.131 0 25.6-11.469 25.6-25.6v-256c0-14.131-11.469-25.6-25.6-25.6zM665.6 140.8h51.2v204.8h-51.2v-204.8z" />
<glyph unicode="&#xe919;" glyph-name="checkmark-circle" d="M486.4-64c-129.946 0-252.058 50.586-343.962 142.438s-142.438 214.016-142.438 343.91c0 129.946 50.586 252.058 142.438 343.962s214.016 142.49 343.962 142.49c129.946 0 252.058-50.586 343.962-142.49s142.438-214.016 142.438-343.962-50.586-252.058-142.438-343.91c-91.853-91.853-214.016-142.438-343.962-142.438zM486.4 857.6c-239.974 0-435.2-195.226-435.2-435.2s195.226-435.2 435.2-435.2 435.2 195.226 435.2 435.2-195.226 435.2-435.2 435.2zM384 217.6c-6.554 0-13.107 2.509-18.125 7.475l-153.6 153.6c-9.984 9.984-9.984 26.214 0 36.198s26.214 9.984 36.198 0l135.475-135.475 340.275 340.275c9.984 9.984 26.214 9.984 36.198 0s9.984-26.214 0-36.198l-358.4-358.4c-5.018-5.018-11.571-7.475-18.125-7.475z" />
<glyph unicode="&#xe91a;" glyph-name="chevron-down-circle" d="M830.362 78.438c91.853 91.853 142.438 214.016 142.438 343.962s-50.586 252.058-142.438 343.91-214.016 142.438-343.962 142.438-252.058-50.586-343.962-142.438-142.438-214.016-142.438-343.91 50.586-252.058 142.438-343.962 214.016-142.438 343.962-142.438 252.058 50.586 343.962 142.438zM51.2 422.4c0 239.974 195.226 435.2 435.2 435.2s435.2-195.226 435.2-435.2c0-239.974-195.226-435.2-435.2-435.2s-435.2 195.226-435.2 435.2zM204.8 499.2c0 6.554 2.509 13.107 7.475 18.125 9.984 9.984 26.214 9.984 36.198 0l237.875-237.875 237.875 237.875c9.984 9.984 26.214 9.984 36.198 0s9.984-26.214 0-36.198l-256-256c-9.984-9.984-26.214-9.984-36.198 0l-256 256c-5.018 5.018-7.475 11.571-7.475 18.125z" />
<glyph unicode="&#xe91b;" glyph-name="chevron-down" d="M0 652.8c0 6.554 2.509 13.107 7.475 18.125 9.984 9.984 26.214 9.984 36.198 0l442.675-442.675 442.675 442.675c9.984 9.984 26.214 9.984 36.198 0s9.984-26.214 0-36.198l-460.8-460.8c-9.984-9.984-26.214-9.984-36.198 0l-460.8 460.8c-5.018 5.018-7.475 11.571-7.475 18.125z" />
<glyph unicode="&#xe91c;" glyph-name="chevron-left-circle" d="M142.438 766.362c91.853 91.853 214.016 142.438 343.962 142.438s252.058-50.586 343.962-142.438 142.438-214.016 142.438-343.91-50.586-252.058-142.438-343.962-214.016-142.438-343.962-142.438-252.058 50.586-343.962 142.438-142.438 214.016-142.438 343.962 50.586 252.058 142.438 343.91zM486.4-12.8c239.974 0 435.2 195.226 435.2 435.2s-195.226 435.2-435.2 435.2c-239.974 0-435.2-195.226-435.2-435.2s195.226-435.2 435.2-435.2zM563.2 140.8c6.554 0 13.107 2.509 18.125 7.475 9.984 9.984 9.984 26.214 0 36.198l-237.875 237.875 237.875 237.875c9.984 9.984 9.984 26.214 0 36.198s-26.214 9.984-36.198 0l-256-256c-9.984-9.984-9.984-26.214 0-36.198l256-256c5.018-5.018 11.571-7.475 18.125-7.475z" />
<glyph unicode="&#xe91d;" glyph-name="chevron-left" d="M716.8-64c6.554 0 13.107 2.509 18.125 7.475 9.984 9.984 9.984 26.214 0 36.198l-442.675 442.675 442.675 442.675c9.984 9.984 9.984 26.214 0 36.198s-26.214 9.984-36.198 0l-460.8-460.8c-9.984-9.984-9.984-26.214 0-36.198l460.8-460.8c5.018-5.018 11.571-7.475 18.125-7.475z" />
<glyph unicode="&#xe91e;" glyph-name="chevron-right-circle" d="M830.362 766.362c-91.853 91.853-214.016 142.438-343.962 142.438s-252.058-50.586-343.962-142.438-142.438-214.016-142.438-343.91 50.586-252.058 142.438-343.962 214.016-142.438 343.962-142.438 252.058 50.586 343.962 142.438 142.438 214.016 142.438 343.962-50.586 252.058-142.438 343.91zM486.4-12.8c-239.974 0-435.2 195.226-435.2 435.2s195.226 435.2 435.2 435.2c239.974 0 435.2-195.226 435.2-435.2s-195.226-435.2-435.2-435.2zM409.6 140.8c-6.554 0-13.107 2.509-18.125 7.475-9.984 9.984-9.984 26.214 0 36.198l237.875 237.875-237.875 237.875c-9.984 9.984-9.984 26.214 0 36.198s26.214 9.984 36.198 0l256-256c9.984-9.984 9.984-26.214 0-36.198l-256-256c-5.018-5.018-11.571-7.475-18.125-7.475z" />
<glyph unicode="&#xe91f;" glyph-name="chevron-right" d="M256-64c-6.554 0-13.107 2.509-18.125 7.475-9.984 9.984-9.984 26.214 0 36.198l442.675 442.675-442.675 442.675c-9.984 9.984-9.984 26.214 0 36.198s26.214 9.984 36.198 0l460.8-460.8c9.984-9.984 9.984-26.214 0-36.198l-460.8-460.8c-5.018-5.018-11.571-7.475-18.125-7.475z" />
<glyph unicode="&#xe920;" glyph-name="chevron-up-circle" d="M142.438 766.362c-91.853-91.853-142.438-214.016-142.438-343.962s50.586-252.058 142.438-343.962 214.016-142.438 343.962-142.438 252.058 50.586 343.962 142.438 142.438 214.016 142.438 343.91-50.586 252.058-142.438 343.962-214.016 142.438-343.962 142.438-252.058-50.586-343.962-142.438zM921.6 422.4c0-239.974-195.226-435.2-435.2-435.2s-435.2 195.226-435.2 435.2c0 239.974 195.226 435.2 435.2 435.2s435.2-195.226 435.2-435.2zM768 345.6c0-6.554-2.509-13.107-7.475-18.125-9.984-9.984-26.214-9.984-36.198 0l-237.875 237.875-237.875-237.875c-9.984-9.984-26.214-9.984-36.198 0s-9.984 26.214 0 36.198l256 256c9.984 9.984 26.214 9.984 36.198 0l256-256c5.018-5.018 7.475-11.571 7.475-18.125z" />
<glyph unicode="&#xe921;" glyph-name="chevron-up" d="M0 192c0-6.554 2.509-13.107 7.475-18.125 9.984-9.984 26.214-9.984 36.198 0l442.675 442.675 442.675-442.675c9.984-9.984 26.214-9.984 36.198 0s9.984 26.214 0 36.198l-460.8 460.8c-9.984 9.984-26.214 9.984-36.198 0l-460.8-460.8c-5.018-5.018-7.475-11.571-7.475-18.125z" />
<glyph unicode="&#xe922;" glyph-name="circle-minus" d="M830.362 766.362c-91.853 91.853-214.016 142.438-343.962 142.438s-252.058-50.586-343.962-142.438-142.438-214.016-142.438-343.91 50.586-252.058 142.438-343.962 214.016-142.438 343.962-142.438 252.058 50.586 343.962 142.438 142.438 214.016 142.438 343.962-50.586 252.058-142.438 343.91zM486.4-12.8c-239.974 0-435.2 195.226-435.2 435.2s195.226 435.2 435.2 435.2c239.974 0 435.2-195.226 435.2-435.2s-195.226-435.2-435.2-435.2zM793.6 396.8h-614.4c-14.131 0-25.6 11.469-25.6 25.6s11.469 25.6 25.6 25.6h614.4c14.131 0 25.6-11.469 25.6-25.6s-11.469-25.6-25.6-25.6z" />
<glyph unicode="&#xe923;" glyph-name="clock" d="M835.584 83.814c88.525 91.238 137.216 211.149 137.216 338.586 0 121.344-44.134 235.93-124.826 325.376l35.226 35.226 33.126-33.075c5.018-5.018 11.571-7.475 18.074-7.475s13.107 2.509 18.074 7.475c9.984 9.984 9.984 26.214 0 36.198l-102.4 102.4c-9.984 9.984-26.214 9.984-36.198 0s-9.984-26.214 0-36.198l33.126-33.075-35.226-35.226c-89.446 80.691-204.032 124.826-325.376 124.826s-235.93-44.134-325.376-124.826l-35.226 35.226 33.075 33.075c9.984 9.984 9.984 26.214 0 36.198s-26.214 9.984-36.198 0l-102.4-102.4c-9.984-9.984-9.984-26.214 0-36.198 5.018-5.018 11.571-7.475 18.125-7.475s13.107 2.509 18.125 7.475l33.075 33.075 35.226-35.226c-80.691-89.446-124.826-204.032-124.826-325.376 0-127.437 48.691-247.347 137.216-338.586l-104.141-104.141c-9.984-9.984-9.984-26.214 0-36.198 5.018-5.018 11.571-7.526 18.125-7.526s13.107 2.509 18.125 7.526l105.472 105.421c87.296-73.114 196.403-112.947 311.654-112.947s224.358 39.834 311.654 112.947l105.421-105.421c5.018-5.018 11.571-7.526 18.125-7.526s13.107 2.509 18.074 7.526c9.984 9.984 9.984 26.214 0 36.198l-104.141 104.141zM51.2 422.4c0 239.974 195.226 435.2 435.2 435.2s435.2-195.226 435.2-435.2c0-239.974-195.226-435.2-435.2-435.2s-435.2 195.226-435.2 435.2zM774.605 588.8c-7.066 12.237-22.733 16.435-34.97 9.37l-251.904-145.459-196.352 137.472c-11.571 8.090-27.546 5.274-35.635-6.298s-5.274-27.546 6.298-35.635l209.715-146.842c0.051-0.051 0.102-0.051 0.102-0.102 0.461-0.307 0.922-0.614 1.382-0.87 0.102-0.051 0.205-0.154 0.307-0.205 0.461-0.256 0.922-0.512 1.382-0.768 0.102-0.051 0.205-0.102 0.307-0.154 0.512-0.256 1.024-0.461 1.587-0.717 0.307-0.154 0.666-0.256 0.973-0.358 0.205-0.051 0.41-0.154 0.666-0.256 0.358-0.102 0.717-0.205 1.075-0.307 0.205-0.051 0.41-0.102 0.614-0.154 0.358-0.102 0.717-0.154 1.126-0.256 0.205-0.051 0.41-0.102 0.614-0.102 0.358-0.051 0.717-0.102 1.075-0.154 0.256-0.051 0.512-0.051 0.768-0.102 0.307-0.051 0.614-0.051 0.922-0.102 0.461-0.051 0.922-0.051 1.382-0.051 0.102 0 0.205 0 0.307 0 0 0 0 0 0 0s0 0 0.051 0c0.973 0 1.894 0.051 2.867 0.154 0.051 0 0.102 0 0.154 0 0.922 0.102 1.843 0.256 2.765 0.512 0.102 0 0.154 0.051 0.256 0.051 0.87 0.205 1.741 0.461 2.56 0.768 0.154 0.051 0.307 0.102 0.41 0.154 0.819 0.307 1.587 0.614 2.355 1.024 0.205 0.102 0.358 0.205 0.563 0.307 0.256 0.154 0.563 0.256 0.819 0.41l266.035 153.6c12.237 7.066 16.435 22.733 9.37 34.97z" />
<glyph unicode="&#xe924;" glyph-name="cloud-check" d="M819.2 140.8h-486.4c-14.131 0-25.6 11.469-25.6 25.6s11.469 25.6 25.6 25.6h486.4c84.685 0 153.6 68.915 153.6 153.6s-68.915 153.6-153.6 153.6c-17.562 0-34.816-2.918-51.2-8.704-11.11-3.942-23.45 0.256-29.901 10.086s-5.376 22.835 2.611 31.488c17.613 18.995 27.29 43.674 27.29 69.581 0 56.474-45.926 102.4-102.4 102.4-54.016 0-98.867-42.138-102.195-96-0.666-10.854-8.141-20.122-18.586-23.040s-21.658 1.024-27.904 9.933c-47.974 68.301-126.362 109.107-209.715 109.107-141.158 0-256-114.842-256-256 0-7.782 0.358-15.616 1.024-23.296 1.28-14.080-9.114-26.522-23.194-27.802s-26.522 9.114-27.802 23.194c-0.819 9.216-1.229 18.586-1.229 27.904 0 169.37 137.83 307.2 307.2 307.2 82.483 0 160.922-33.28 218.163-90.931 24.115 53.76 78.182 90.931 140.237 90.931 84.685 0 153.6-68.915 153.6-153.6 0-17.715-3.021-35.072-8.806-51.405 2.918 0.102 5.888 0.205 8.806 0.205 112.947 0 204.8-91.853 204.8-204.8s-91.853-204.8-204.8-204.8zM179.2 166.4c-6.554 0-13.107 2.509-18.125 7.475l-102.4 102.4c-9.984 9.984-9.984 26.214 0 36.198s26.214 9.984 36.198 0l84.275-84.275 237.875 237.875c9.984 9.984 26.214 9.984 36.198 0s9.984-26.214 0-36.198l-256-256c-5.018-5.018-11.571-7.475-18.125-7.475z" />
<glyph unicode="&#xe925;" glyph-name="cloud-download" d="M819.507 140.8h-128.307c-14.131 0-25.6 11.469-25.6 25.6s11.469 25.6 25.6 25.6h128.307c84.531 0 153.293 68.762 153.293 153.293s-68.762 153.293-153.293 153.293c-18.022 0-35.635-3.072-52.378-9.165-11.162-4.045-23.654 0.102-30.157 10.035s-5.325 23.040 2.867 31.642c18.176 19.098 28.16 44.134 28.16 70.502 0 56.474-45.926 102.4-102.4 102.4-32.87 0-62.925-15.206-82.432-41.677-11.725-15.872-18.534-34.662-19.763-54.323-0.666-10.854-8.141-20.122-18.637-23.091s-21.658 1.075-27.904 9.984l-0.256 0.358c-5.478 7.782-11.571 15.462-17.971 22.63-48.589 54.682-118.374 86.067-191.488 86.067-141.158 0-256-114.842-256-256s114.842-256 256-256h76.8c14.131 0 25.6-11.469 25.6-25.6s-11.469-25.6-25.6-25.6h-76.8c-169.37 0-307.2 137.83-307.2 307.2s137.83 307.2 307.2 307.2c82.074 0 160.614-32.922 218.163-90.88 4.454 9.984 10.035 19.507 16.589 28.416 28.877 39.117 75.11 62.464 123.648 62.464 84.685 0 153.6-68.915 153.6-153.6 0-17.971-3.123-35.533-9.011-52.070 3.123 0.154 6.246 0.205 9.37 0.205 112.742 0 204.493-91.75 204.493-204.493s-91.75-204.493-204.493-204.493zM658.125 286.925c-9.984 9.984-26.214 9.984-36.198 0l-58.675-58.675v194.202c0 14.131-11.469 25.6-25.6 25.6s-25.6-11.469-25.6-25.6v-194.202l-58.675 58.675c-9.984 9.984-26.214 9.984-36.198 0s-9.984-26.214 0-36.198l102.4-102.4c5.018-5.018 11.571-7.475 18.125-7.475s13.107 2.509 18.125 7.475l102.4 102.4c9.984 9.984 9.984 26.214 0 36.198z" />
<glyph unicode="&#xe926;" glyph-name="cloud-sync" d="M819.507 549.786c-3.123 0-6.246-0.051-9.37-0.205 5.939 16.486 9.062 34.099 9.062 52.070 0 84.685-68.915 153.6-153.6 153.6-48.538 0-94.771-23.347-123.648-62.464-6.605-8.909-12.134-18.432-16.589-28.416-57.498 57.958-136.090 90.88-218.163 90.88-169.37 0-307.2-137.83-307.2-307.2s137.83-307.2 307.2-307.2h512.307c112.742 0 204.493 91.75 204.493 204.493s-91.75 204.493-204.493 204.493zM819.507 192h-512.307c-141.158 0-256 114.842-256 256s114.842 256 256 256c73.114 0 142.899-31.386 191.488-86.067 6.4-7.219 12.442-14.848 17.971-22.63l0.256-0.358c6.246-8.909 17.408-12.954 27.904-9.984s17.971 12.186 18.637 23.091c1.229 19.661 8.038 38.451 19.763 54.323 19.558 26.47 49.613 41.677 82.483 41.677 56.474 0 102.4-45.926 102.4-102.4 0-26.368-9.984-51.405-28.16-70.502-8.192-8.602-9.37-21.709-2.867-31.642s18.995-14.080 30.157-10.035c16.742 6.093 34.355 9.165 52.378 9.165 84.531 0 153.293-68.762 153.293-153.293s-68.762-153.293-153.293-153.293zM327.885 347.699c-6.758-1.382-13.722-2.099-20.685-2.099-56.474 0-102.4 45.926-102.4 102.4v15.002l7.475-7.475c5.018-5.018 11.571-7.475 18.125-7.475s13.107 2.509 18.125 7.475c9.984 9.984 9.984 26.214 0 36.198l-51.2 51.2c-9.984 9.984-26.214 9.984-36.198 0l-51.2-51.2c-9.984-9.984-9.984-26.214 0-36.198s26.214-9.984 36.198 0l7.475 7.475v-15.002c0-84.685 68.915-153.6 153.6-153.6 10.394 0 20.787 1.075 30.925 3.123 13.875 2.816 22.784 16.384 19.968 30.208s-16.333 22.784-30.208 19.968zM468.275 440.525l-7.475-7.475v15.002c0 84.685-68.915 153.6-153.6 153.6-10.394 0-20.787-1.075-30.925-3.123-13.875-2.816-22.784-16.384-19.968-30.208s16.384-22.784 30.208-19.968c6.758 1.382 13.722 2.099 20.685 2.099 56.474 0 102.4-45.926 102.4-102.4v-15.002l-7.475 7.475c-9.984 9.984-26.214 9.984-36.198 0s-9.984-26.214 0-36.198l51.2-51.2c5.018-5.018 11.571-7.475 18.125-7.475s13.107 2.509 18.125 7.475l51.2 51.2c9.984 9.984 9.984 26.214 0 36.198s-26.214 9.984-36.198 0z" />
<glyph unicode="&#xe927;" glyph-name="cloud-upload" d="M819.507 140.8h-179.507c-14.131 0-25.6 11.469-25.6 25.6s11.469 25.6 25.6 25.6h179.507c84.531 0 153.293 68.762 153.293 153.293s-68.762 153.293-153.293 153.293c-18.022 0-35.635-3.072-52.378-9.165-11.162-4.045-23.654 0.102-30.157 10.035s-5.325 23.040 2.867 31.642c18.176 19.098 28.16 44.134 28.16 70.502 0 56.474-45.926 102.4-102.4 102.4-32.87 0-62.925-15.206-82.432-41.677-11.725-15.872-18.534-34.662-19.763-54.323-0.666-10.854-8.141-20.122-18.637-23.091s-21.658 1.075-27.904 9.984l-0.256 0.358c-5.478 7.782-11.571 15.462-17.971 22.63-48.589 54.682-118.374 86.067-191.488 86.067-141.158 0-256-114.842-256-256s114.842-256 256-256h128c14.131 0 25.6-11.469 25.6-25.6s-11.469-25.6-25.6-25.6h-128c-169.37 0-307.2 137.83-307.2 307.2s137.83 307.2 307.2 307.2c82.074 0 160.614-32.922 218.163-90.88 4.454 9.984 10.035 19.507 16.589 28.416 28.877 39.117 75.11 62.464 123.648 62.464 84.685 0 153.6-68.915 153.6-153.6 0-17.971-3.123-35.533-9.011-52.070 3.123 0.154 6.246 0.205 9.37 0.205 112.742 0 204.493-91.75 204.493-204.493s-91.75-204.493-204.493-204.493zM658.125 338.125l-102.4 102.4c-9.984 9.984-26.214 9.984-36.198 0l-102.4-102.4c-9.984-9.984-9.984-26.214 0-36.198s26.214-9.984 36.198 0l58.675 58.675v-194.202c0-14.131 11.469-25.6 25.6-25.6s25.6 11.469 25.6 25.6v194.202l58.675-58.675c5.018-5.018 11.571-7.475 18.125-7.475s13.107 2.509 18.125 7.475c9.984 9.984 9.984 26.214 0 36.198z" />
<glyph unicode="&#xe928;" glyph-name="cloud" d="M819.507 140.8h-512.307c-169.37 0-307.2 137.83-307.2 307.2s137.83 307.2 307.2 307.2c82.022 0 160.614-32.922 218.112-90.88 4.506 9.933 10.035 19.456 16.64 28.416 28.877 39.117 75.11 62.464 123.648 62.464 84.685 0 153.6-68.915 153.6-153.6 0-17.971-3.123-35.533-9.114-52.070 3.123 0.154 6.246 0.205 9.421 0.205 112.742 0 204.493-91.75 204.493-204.493s-91.75-204.493-204.493-204.493zM307.2 704c-141.158 0-256-114.842-256-256s114.842-256 256-256h512.307c84.531 0 153.293 68.762 153.293 153.293s-68.762 153.293-153.293 153.293c-18.125 0-35.789-3.123-52.531-9.216-11.162-4.096-23.654 0.051-30.208 9.984s-5.325 23.040 2.867 31.693c18.278 19.251 28.365 44.288 28.365 70.605 0 56.474-45.926 102.4-102.4 102.4-32.87 0-62.925-15.206-82.432-41.677-11.776-15.974-18.688-34.714-19.866-54.118-0.666-10.854-8.141-20.122-18.586-23.040s-21.658 1.024-27.904 9.882c-5.632 7.987-11.725 15.718-18.125 22.886-48.589 54.682-118.374 86.067-191.488 86.067z" />
<glyph unicode="&#xe929;" glyph-name="code" d="M256 192c-6.554 0-13.107 2.509-18.125 7.475l-204.8 204.8c-9.984 9.984-9.984 26.214 0 36.198l204.8 204.8c9.984 9.984 26.214 9.984 36.198 0s9.984-26.214 0-36.198l-186.675-186.675 186.675-186.675c9.984-9.984 9.984-26.214 0-36.198-5.018-5.018-11.571-7.475-18.125-7.475zM768 192c-6.554 0-13.107 2.509-18.125 7.475-9.984 9.984-9.984 26.214 0 36.198l186.675 186.675-186.675 186.675c-9.984 9.984-9.984 26.214 0 36.198s26.214 9.984 36.198 0l204.8-204.8c9.984-9.984 9.984-26.214 0-36.198l-204.8-204.8c-5.018-5.018-11.571-7.475-18.125-7.475zM384 192c-4.659 0-9.318 1.28-13.568 3.891-11.981 7.475-15.616 23.296-8.141 35.277l256 409.6c7.475 11.981 23.296 15.616 35.277 8.141s15.616-23.296 8.141-35.277l-256-409.6c-4.864-7.782-13.21-12.032-21.709-12.032z" />
<glyph unicode="&#xe92a;" glyph-name="coffee-cup" d="M512 192c-84.685 0-153.6 68.915-153.6 153.6s68.915 153.6 153.6 153.6 153.6-68.915 153.6-153.6-68.915-153.6-153.6-153.6zM512 448c-56.474 0-102.4-45.926-102.4-102.4s45.926-102.4 102.4-102.4c56.474 0 102.4 45.926 102.4 102.4s-45.926 102.4-102.4 102.4zM814.285 854.733l-9.062 36.198c-9.677 38.707-48.538 69.069-88.474 69.069h-409.6c-39.936 0-78.746-30.362-88.474-69.069l-9.062-36.198c-32.307-9.062-56.115-38.758-56.115-73.933v-51.2c0-33.946 22.118-62.771 52.685-72.909l46.131-645.837c2.97-41.267 39.014-74.854 80.384-74.854h358.4c41.37 0 77.414 33.587 80.384 74.854l46.131 645.837c30.566 10.138 52.685 38.963 52.685 72.909v51.2c0 35.174-23.757 64.87-56.115 73.933zM307.2 908.8h409.6c16.333 0 34.816-14.438 38.758-30.259l5.222-20.941h-497.613l5.222 20.941c3.942 15.821 22.426 30.259 38.758 30.259zM762.47 601.6h-500.89l-3.635 51.2h508.211l-3.635-51.2zM729.549 140.8h-435.046l-29.235 409.6h493.568l-29.235-409.6zM691.2-12.8h-358.4c-14.848 0-28.262 12.493-29.338 27.29l-5.376 75.11h427.776l-5.376-75.11c-1.075-14.797-14.49-27.29-29.338-27.29zM819.2 729.6c0-14.131-11.469-25.6-25.6-25.6h-563.2c-14.131 0-25.6 11.469-25.6 25.6v51.2c0 14.080 11.469 25.549 25.549 25.6 0.051 0 0.051 0 0.102 0s0.102 0 0.154 0h563.046c14.131 0 25.6-11.469 25.6-25.6v-51.2z" />
<glyph unicode="&#xe92b;" glyph-name="cog" d="M390.707-48.742c-2.099 0-4.25 0.256-6.4 0.819-45.978 11.827-90.163 30.054-131.277 54.221-11.93 7.014-16.128 22.221-9.523 34.355 8.141 14.95 12.442 31.846 12.442 48.998 0 56.474-45.926 102.4-102.4 102.4-17.101 0-34.048-4.301-48.998-12.442-12.134-6.605-27.341-2.406-34.355 9.523-24.166 41.165-42.394 85.299-54.221 131.277-3.328 13.005 3.942 26.368 16.64 30.618 41.677 14.029 69.734 53.043 69.734 97.024s-28.006 82.995-69.734 97.024c-12.698 4.301-19.968 17.613-16.64 30.618 11.827 45.978 30.054 90.163 54.221 131.277 7.014 11.93 22.221 16.128 34.355 9.523 14.899-8.141 31.846-12.442 48.998-12.442 56.474 0 102.4 45.926 102.4 102.4 0 17.101-4.301 34.048-12.442 48.998-6.605 12.134-2.406 27.341 9.523 34.355 41.165 24.166 85.299 42.394 131.277 54.221 13.005 3.328 26.368-3.942 30.618-16.64 14.029-41.677 53.043-69.734 97.024-69.734s82.995 28.006 97.024 69.734c4.301 12.698 17.664 19.968 30.618 16.64 45.978-11.827 90.163-30.054 131.277-54.221 11.93-7.014 16.128-22.221 9.523-34.355-8.141-14.95-12.442-31.846-12.442-48.998 0-56.474 45.926-102.4 102.4-102.4 17.101 0 34.048 4.301 48.998 12.442 12.134 6.605 27.341 2.406 34.355-9.523 24.166-41.165 42.394-85.299 54.221-131.277 3.328-13.005-3.942-26.368-16.64-30.618-41.677-14.029-69.734-53.043-69.734-97.024s28.006-82.995 69.734-97.024c12.698-4.301 19.968-17.613 16.64-30.618-11.827-45.978-30.054-90.163-54.221-131.277-7.014-11.93-22.221-16.128-34.355-9.523-14.95 8.141-31.846 12.442-48.998 12.442-56.474 0-102.4-45.926-102.4-102.4 0-17.101 4.301-34.048 12.442-48.998 6.605-12.134 2.406-27.341-9.523-34.355-41.165-24.166-85.299-42.394-131.277-54.221-13.005-3.328-26.368 3.942-30.618 16.64-14.029 41.677-53.043 69.734-97.024 69.734s-82.995-28.006-97.024-69.734c-3.584-10.598-13.517-17.459-24.269-17.459zM512 89.6c57.702 0 109.67-32.154 135.936-82.022 26.624 8.243 52.531 18.893 77.312 31.846-5.53 16.077-8.397 33.075-8.397 50.176 0 84.685 68.915 153.6 153.6 153.6 17.101 0 34.099-2.867 50.176-8.397 12.954 24.781 23.654 50.637 31.846 77.312-49.869 26.214-82.022 78.182-82.022 135.936s32.154 109.67 82.022 135.936c-8.243 26.624-18.893 52.531-31.846 77.312-16.077-5.53-33.075-8.397-50.176-8.397-84.685 0-153.6 68.915-153.6 153.6 0 17.101 2.867 34.099 8.397 50.176-24.781 12.954-50.637 23.654-77.312 31.846-26.214-49.869-78.182-82.022-135.936-82.022s-109.67 32.154-135.936 82.022c-26.624-8.192-52.531-18.893-77.312-31.846 5.53-16.077 8.397-33.075 8.397-50.176 0-84.685-68.915-153.6-153.6-153.6-17.101 0-34.099 2.867-50.176 8.397-12.954-24.781-23.654-50.637-31.846-77.312 49.869-26.214 82.022-78.182 82.022-135.936s-32.154-109.67-82.022-135.936c8.192-26.624 18.893-52.531 31.846-77.312 16.077 5.53 33.075 8.397 50.176 8.397 84.685 0 153.6-68.915 153.6-153.6 0-17.101-2.867-34.099-8.397-50.176 24.781-12.954 50.637-23.654 77.312-31.846 26.214 49.869 78.182 82.022 135.936 82.022zM512 294.4c-84.685 0-153.6 68.915-153.6 153.6s68.915 153.6 153.6 153.6 153.6-68.915 153.6-153.6-68.915-153.6-153.6-153.6zM512 550.4c-56.474 0-102.4-45.926-102.4-102.4s45.926-102.4 102.4-102.4c56.474 0 102.4 45.926 102.4 102.4s-45.926 102.4-102.4 102.4z" />
<glyph unicode="&#xe92c;" glyph-name="construction" d="M1024 704v76.8c0 14.131-11.469 25.6-25.6 25.6h-179.2c0 0 0 0 0 0h-256c0 0 0 0 0 0h-256c0 0 0 0 0 0h-281.6c-14.131 0-25.6-11.469-25.6-25.6v-307.2c0-14.131 11.469-25.6 25.6-25.6h76.8v-307.2h-25.6c-14.131 0-25.6-11.469-25.6-25.6s11.469-25.6 25.6-25.6h204.8c14.131 0 25.6 11.469 25.6 25.6s-11.469 25.6-25.6 25.6h-25.6v153.6h512v-153.6h-25.6c-14.131 0-25.6-11.469-25.6-25.6s11.469-25.6 25.6-25.6h204.8c14.131 0 25.6 11.469 25.6 25.6s-11.469 25.6-25.6 25.6h-25.6v307.2h76.8c14.131 0 25.6 11.469 25.6 25.6v230.4c0 0 0 0 0 0zM972.8 714.598l-215.398-215.398h-183.603l256 256h143.002v-40.602zM317.798 499.2l256 256h183.603l-256-256h-183.603zM61.798 499.2l256 256h183.603l-256-256h-183.603zM245.402 755.2l-194.202-194.202v194.202h194.202zM153.6 140.8v307.2h51.2v-307.2h-51.2zM256 345.6v102.4h512v-102.4h-512zM870.4 140.8h-51.2v307.2h51.2v-307.2zM829.798 499.2l143.002 143.002v-143.002h-143.002z" />
<glyph unicode="&#xe92d;" glyph-name="crop" d="M998.4 192h-153.6c-14.131 0-25.6 11.469-25.6 25.6s11.469 25.6 25.6 25.6h153.6c14.131 0 25.6-11.469 25.6-25.6s-11.469-25.6-25.6-25.6zM640 192h-358.4c-14.131 0-25.6 11.469-25.6 25.6v358.4c0 14.131 11.469 25.6 25.6 25.6s25.6-11.469 25.6-25.6v-332.8h332.8c14.131 0 25.6-11.469 25.6-25.6s-11.469-25.6-25.6-25.6zM281.6 755.2c-14.131 0-25.6 11.469-25.6 25.6v153.6c0 14.131 11.469 25.6 25.6 25.6s25.6-11.469 25.6-25.6v-153.6c0-14.131-11.469-25.6-25.6-25.6zM742.4-64c-14.131 0-25.6 11.469-25.6 25.6v691.2h-691.2c-14.131 0-25.6 11.469-25.6 25.6s11.469 25.6 25.6 25.6h716.8c14.131 0 25.6-11.469 25.6-25.6v-716.8c0-14.131-11.469-25.6-25.6-25.6z" />
<glyph unicode="&#xe92e;" glyph-name="cross-circle" d="M733.798 236.749l-208.896 185.651 208.896 185.651c10.547 9.37 11.52 25.549 2.15 36.147s-25.549 11.52-36.147 2.15l-213.402-189.696-213.402 189.696c-10.547 9.37-26.726 8.448-36.147-2.15s-8.448-26.726 2.15-36.147l208.896-185.651-208.896-185.651c-10.547-9.37-11.52-25.549-2.15-36.147 5.069-5.683 12.083-8.602 19.149-8.602 6.042 0 12.134 2.15 16.998 6.451l213.402 189.696 213.402-189.696c4.864-4.352 10.957-6.451 16.998-6.451 7.066 0 14.080 2.918 19.149 8.602 9.37 10.547 8.448 26.726-2.15 36.147zM486.4-64c-129.946 0-252.058 50.586-343.962 142.438s-142.438 214.016-142.438 343.91c0 129.946 50.586 252.058 142.438 343.962s214.016 142.49 343.962 142.49c129.946 0 252.058-50.586 343.962-142.49s142.438-214.016 142.438-343.962-50.586-252.058-142.438-343.91c-91.853-91.853-214.016-142.438-343.962-142.438zM486.4 857.6c-239.974 0-435.2-195.226-435.2-435.2s195.226-435.2 435.2-435.2 435.2 195.226 435.2 435.2-195.226 435.2-435.2 435.2z" />
<glyph unicode="&#xe92f;" glyph-name="cross" d="M548.198 422.4l289.075 289.075c9.984 9.984 9.984 26.214 0 36.198s-26.214 9.984-36.198 0l-289.075-289.075-289.075 289.075c-9.984 9.984-26.214 9.984-36.198 0s-9.984-26.214 0-36.198l289.075-289.075-289.075-289.075c-9.984-9.984-9.984-26.214 0-36.198 5.018-5.018 11.571-7.475 18.125-7.475s13.107 2.509 18.125 7.475l289.075 289.075 289.075-289.075c5.018-5.018 11.571-7.475 18.125-7.475s13.107 2.509 18.125 7.475c9.984 9.984 9.984 26.214 0 36.198l-289.075 289.075z" />
<glyph unicode="&#xe930;" glyph-name="database" d="M925.030 877.619c-25.446 16.691-61.082 31.488-105.933 43.93-89.19 24.781-207.36 38.4-332.698 38.4s-243.507-13.67-332.698-38.4c-44.902-12.442-80.538-27.238-105.933-43.93-31.693-20.838-47.77-44.749-47.77-71.219v-614.4c0-26.47 16.077-50.432 47.77-71.219 25.446-16.691 61.082-31.488 105.933-43.93 89.19-24.781 207.36-38.4 332.698-38.4s243.507 13.67 332.698 38.451c44.902 12.442 80.538 27.238 105.933 43.93 31.693 20.787 47.77 44.749 47.77 71.219v614.4c0 26.47-16.077 50.432-47.77 71.219zM167.424 872.243c84.89 23.552 198.144 36.557 318.976 36.557s234.138-13.005 318.976-36.557c91.904-25.549 116.224-54.221 116.224-65.843s-24.269-40.294-116.224-65.843c-84.89-23.552-198.144-36.557-318.976-36.557s-234.138 13.005-318.976 36.557c-91.904 25.549-116.224 54.221-116.224 65.843s24.269 40.294 116.224 65.843zM805.376 126.157c-84.89-23.552-198.144-36.557-318.976-36.557s-234.138 13.005-318.976 36.557c-91.904 25.549-116.224 54.221-116.224 65.843v131.379c25.19-15.821 59.597-29.85 102.502-41.779 89.19-24.781 207.36-38.4 332.698-38.4s243.507 13.67 332.698 38.451c42.906 11.93 77.363 25.958 102.502 41.779v-131.379c0-11.622-24.269-40.294-116.224-65.843zM805.376 330.957c-84.89-23.552-198.144-36.557-318.976-36.557s-234.138 13.005-318.976 36.557c-91.904 25.549-116.224 54.221-116.224 65.843v131.379c25.19-15.821 59.597-29.85 102.502-41.779 89.19-24.781 207.36-38.4 332.698-38.4s243.507 13.67 332.698 38.4c42.906 11.93 77.363 25.958 102.502 41.779v-131.379c0-11.622-24.269-40.294-116.224-65.843zM805.376 535.757c-84.89-23.552-198.144-36.557-318.976-36.557s-234.138 13.005-318.976 36.557c-91.904 25.549-116.224 54.221-116.224 65.843v131.379c25.19-15.821 59.597-29.85 102.502-41.779 89.19-24.781 207.36-38.4 332.698-38.4s243.507 13.67 332.698 38.4c42.906 11.93 77.363 25.958 102.502 41.779v-131.379c0-11.622-24.269-40.294-116.224-65.843z" />
<glyph unicode="&#xe931;" glyph-name="diamond" d="M967.68 591.36l-153.6 204.8c-3.942 5.274-9.779 8.806-16.282 9.882l-307.2 51.2c-2.765 0.461-5.632 0.461-8.397 0l-307.2-51.2c-6.502-1.075-12.339-4.608-16.282-9.882l-153.6-204.8c-7.322-9.779-6.707-23.398 1.434-32.461l460.8-512c4.864-5.376 11.776-8.499 19.046-8.499s14.182 3.072 19.046 8.499l460.8 512c8.192 9.114 8.806 22.682 1.434 32.461zM654.643 601.6l-168.243-462.694-168.243 462.694h336.486zM343.398 652.8l143.002 143.002 143.002-143.002h-286.003zM560.998 793.6l189.338-31.539-63.13-94.669-126.259 126.208zM285.594 667.392l-63.13 94.669 189.338 31.539-126.208-126.208zM239.104 644.813l-152.832-30.566 91.699 122.266 61.133-91.699zM265.062 597.76l152.269-418.765-342.63 380.723 190.362 38.093zM707.738 597.76l190.362-38.093-342.63-380.723 152.269 418.765zM733.696 644.813l61.133 91.699 91.699-122.266-152.832 30.566z" />
<glyph unicode="&#xe932;" glyph-name="dice" d="M281.6 140.8c-42.342 0-76.8 34.458-76.8 76.8s34.458 76.8 76.8 76.8 76.8-34.458 76.8-76.8-34.458-76.8-76.8-76.8zM281.6 243.2c-14.131 0-25.6-11.469-25.6-25.6s11.469-25.6 25.6-25.6 25.6 11.469 25.6 25.6-11.469 25.6-25.6 25.6zM281.6 345.6c-42.342 0-76.8 34.458-76.8 76.8s34.458 76.8 76.8 76.8 76.8-34.458 76.8-76.8-34.458-76.8-76.8-76.8zM281.6 448c-14.131 0-25.6-11.469-25.6-25.6s11.469-25.6 25.6-25.6 25.6 11.469 25.6 25.6-11.469 25.6-25.6 25.6zM281.6 550.4c-42.342 0-76.8 34.458-76.8 76.8s34.458 76.8 76.8 76.8 76.8-34.458 76.8-76.8-34.458-76.8-76.8-76.8zM281.6 652.8c-14.131 0-25.6-11.469-25.6-25.6s11.469-25.6 25.6-25.6 25.6 11.469 25.6 25.6-11.469 25.6-25.6 25.6zM691.2 550.4c-42.342 0-76.8 34.458-76.8 76.8s34.458 76.8 76.8 76.8 76.8-34.458 76.8-76.8-34.458-76.8-76.8-76.8zM691.2 652.8c-14.131 0-25.6-11.469-25.6-25.6s11.469-25.6 25.6-25.6 25.6 11.469 25.6 25.6-11.469 25.6-25.6 25.6zM691.2 345.6c-42.342 0-76.8 34.458-76.8 76.8s34.458 76.8 76.8 76.8 76.8-34.458 76.8-76.8-34.458-76.8-76.8-76.8zM691.2 448c-14.131 0-25.6-11.469-25.6-25.6s11.469-25.6 25.6-25.6 25.6 11.469 25.6 25.6-11.469 25.6-25.6 25.6zM691.2 140.8c-42.342 0-76.8 34.458-76.8 76.8s34.458 76.8 76.8 76.8 76.8-34.458 76.8-76.8-34.458-76.8-76.8-76.8zM691.2 243.2c-14.131 0-25.6-11.469-25.6-25.6s11.469-25.6 25.6-25.6 25.6 11.469 25.6 25.6-11.469 25.6-25.6 25.6zM793.6-12.8h-614.4c-70.554 0-128 57.446-128 128v614.4c0 70.554 57.446 128 128 128h614.4c70.554 0 128-57.446 128-128v-614.4c0-70.554-57.446-128-128-128zM179.2 806.4c-42.342 0-76.8-34.458-76.8-76.8v-614.4c0-42.342 34.458-76.8 76.8-76.8h614.4c42.342 0 76.8 34.458 76.8 76.8v614.4c0 42.342-34.458 76.8-76.8 76.8h-614.4z" />
<glyph unicode="&#xe933;" glyph-name="dinner" d="M409.6 934.4c0 14.131-11.469 25.6-25.6 25.6s-25.6-11.469-25.6-25.6c0-66.867 12.902-122.726 23.296-167.629 10.138-43.725 18.074-78.285 6.656-92.723-9.523-11.981-36.71-18.944-80.947-20.787-0.102 8.294-0.205 16.691-0.205 25.088v204.8c0 14.131-11.469 25.6-25.6 25.6s-25.6-11.469-25.6-25.6v-204.8c0-8.448-0.051-16.794-0.205-25.088-44.083 1.894-71.219 8.909-80.742 20.89-11.52 14.49-3.533 49.101 6.554 92.877 10.342 44.8 23.194 100.608 23.194 167.27 0 14.131-11.469 25.6-25.6 25.6s-25.6-11.469-25.6-25.6c0-60.877-12.134-113.51-21.862-155.802-13.21-57.242-23.603-102.502 3.277-136.294 19.968-25.088 56.371-37.53 119.45-40.192-5.734-142.848-26.419-265.728-43.571-367.462-22.835-135.373-37.888-224.768 0.614-270.285 15.923-18.842 39.526-28.416 70.144-28.416s54.221 9.574 70.144 28.416c38.502 45.568 23.45 135.066 0.614 270.541-17.101 101.632-37.786 224.461-43.571 367.206 63.232 2.56 99.635 14.95 119.654 40.090 26.829 33.741 16.384 78.899 3.174 136.141-9.779 42.342-21.965 95.078-21.965 156.058zM312.627-2.509c-3.738-4.403-11.008-10.291-31.027-10.291s-27.29 5.837-31.027 10.24c-23.142 27.392-7.424 120.678 10.803 228.71 6.605 39.014 13.67 81.152 20.275 126.31 6.605-45.107 13.67-87.091 20.224-126.106 18.227-108.134 33.946-201.523 10.803-228.966zM813.158 234.906c-20.122 119.347-45.107 267.827-45.158 443.494v256c0 11.622-7.834 21.76-19.046 24.73s-23.040-1.946-28.774-12.032c-103.373-180.941-154.419-457.267-156.57-468.941-1.382-7.475 0.666-15.155 5.53-20.992s12.083-9.216 19.661-9.216h114.432c-8.96-79.053-20.941-150.272-31.59-213.299-22.835-135.373-37.888-224.768 0.614-270.285 15.923-18.842 39.526-28.416 70.144-28.416s54.221 9.574 70.144 28.416c38.502 45.568 23.45 135.066 0.614 270.541zM620.083 499.2c12.698 59.955 45.158 199.014 96.717 323.43v-144.23c0-63.283-3.226-123.034-8.346-179.2h-88.422zM773.427-2.509c-3.738-4.403-11.008-10.291-31.027-10.291s-27.29 5.837-31.027 10.24c-23.142 27.392-7.424 120.678 10.803 228.71 6.605 39.014 13.67 81.152 20.275 126.31 6.605-45.107 13.67-87.142 20.224-126.106 18.227-108.134 33.946-201.523 10.803-228.966z" />
<glyph unicode="&#xe934;" glyph-name="direction-ltr" d="M786.125 82.125l-102.4 102.4c-9.984 9.984-26.214 9.984-36.198 0s-9.984-26.214 0-36.198l58.675-58.675h-475.802c-14.131 0-25.6-11.469-25.6-25.6s11.469-25.6 25.6-25.6h475.802l-58.675-58.675c-9.984-9.984-9.984-26.214 0-36.198 5.018-5.018 11.571-7.475 18.125-7.475s13.107 2.509 18.125 7.475l102.4 102.4c9.984 9.984 9.984 26.214 0 36.198zM793.6 908.8h-435.2c-112.947 0-204.8-91.853-204.8-204.8s91.853-204.8 204.8-204.8h51.2v-230.4c0-14.131 11.469-25.6 25.6-25.6s25.6 11.469 25.6 25.6v588.8h153.6v-588.8c0-14.131 11.469-25.6 25.6-25.6s25.6 11.469 25.6 25.6v588.8h128c14.131 0 25.6 11.469 25.6 25.6s-11.469 25.6-25.6 25.6zM409.6 550.4h-51.2c-84.685 0-153.6 68.915-153.6 153.6s68.915 153.6 153.6 153.6h51.2v-307.2z" />
<glyph unicode="&#xe935;" glyph-name="direction-rtl" d="M793.6 908.8h-435.2c-112.947 0-204.8-91.853-204.8-204.8s91.853-204.8 204.8-204.8h51.2v-230.4c0-14.131 11.469-25.6 25.6-25.6s25.6 11.469 25.6 25.6v588.8h153.6v-588.8c0-14.131 11.469-25.6 25.6-25.6s25.6 11.469 25.6 25.6v588.8h128c14.131 0 25.6 11.469 25.6 25.6s-11.469 25.6-25.6 25.6zM409.6 550.4h-51.2c-84.685 0-153.6 68.915-153.6 153.6s68.915 153.6 153.6 153.6h51.2v-307.2zM742.4 89.6h-475.802l58.675 58.675c9.984 9.984 9.984 26.214 0 36.198s-26.214 9.984-36.198 0l-102.4-102.4c-9.984-9.984-9.984-26.214 0-36.198l102.4-102.4c5.018-5.018 11.571-7.475 18.125-7.475s13.107 2.509 18.125 7.475c9.984 9.984 9.984 26.214 0 36.198l-58.675 58.675h475.802c14.131 0 25.6 11.469 25.6 25.6s-11.469 25.6-25.6 25.6z" />
<glyph unicode="&#xe936;" glyph-name="download" d="M760.474 466.074c-9.984 9.984-26.214 9.984-36.198 0l-212.275-212.275v578.202c0 14.131-11.469 25.6-25.6 25.6s-25.6-11.469-25.6-25.6v-578.202l-212.275 212.275c-9.984 9.984-26.214 9.984-36.198 0s-9.984-26.214 0-36.198l256-256c5.018-5.018 11.571-7.475 18.125-7.475s13.107 2.509 18.125 7.526l256 256c9.984 9.984 9.984 26.214 0 36.198zM896-12.8h-819.2c-42.342 0-76.8 34.458-76.8 76.8v102.4c0 14.131 11.469 25.6 25.6 25.6s25.6-11.469 25.6-25.6v-102.4c0-14.131 11.469-25.6 25.6-25.6h819.2c14.131 0 25.6 11.469 25.6 25.6v102.4c0 14.131 11.469 25.6 25.6 25.6s25.6-11.469 25.6-25.6v-102.4c0-42.342-34.458-76.8-76.8-76.8z" />
<glyph unicode="&#xe937;" glyph-name="drop" d="M512-64c-82.637 0-159.642 33.536-216.883 94.464-58.010 61.747-89.958 146.381-89.958 238.336 0 150.682 66.97 258.509 137.882 372.634 54.784 88.218 111.462 179.405 144.23 299.674 3.021 11.162 13.158 18.842 24.678 18.842s21.658-7.731 24.678-18.842c32.819-120.32 89.549-211.558 144.435-299.776 71.014-114.125 138.086-221.952 138.086-372.582 0-92.109-31.744-176.742-89.395-238.285-57.088-60.928-134.451-94.515-217.805-94.515zM512 851.814c-34.509-90.931-80.589-165.12-125.44-237.363-69.837-112.435-130.202-209.562-130.202-345.651 0-160.563 109.926-281.6 255.642-281.6 145.92 0 256 121.037 256 281.6 0 136.038-60.416 233.114-130.355 345.549-44.954 72.243-91.136 146.483-125.645 237.466z" />
<glyph unicode="&#xe938;" glyph-name="earth" d="M874.035 810.035c-96.717 96.717-225.28 149.965-362.035 149.965s-265.318-53.248-362.035-149.965c-96.717-96.717-149.965-225.28-149.965-362.035s53.248-265.318 149.965-362.035c96.717-96.717 225.28-149.965 362.035-149.965s265.318 53.248 362.035 149.965c96.717 96.717 149.965 225.28 149.965 362.035s-53.248 265.318-149.965 362.035zM941.926 613.837c-9.984 17.971-35.072 26.522-67.84 37.683-35.174 11.981-47.616 48.128-62.003 90.010-12.493 36.352-25.395 73.882-56.064 97.229 83.917-52.582 149.709-131.43 185.907-224.922zM798.259 438.221c3.891-34.662 7.885-70.554-35.174-118.886-11.622-13.056-18.432-31.232-25.651-50.483-16.691-44.595-32.461-86.733-99.635-87.347-1.894 2.253-7.219 10.752-11.981 37.53-4.352 24.678-6.861 56.627-9.574 90.368-4.096 51.814-8.755 110.592-21.555 159.334-16.384 62.31-43.878 99.123-84.019 112.538-17.51 5.837-35.43 8.704-54.682 8.704-14.234 0-27.136-1.536-38.502-2.867-8.858-1.024-17.254-2.048-24.32-2.048 0 0 0 0 0 0-11.981 0-25.549 0-42.291 38.298-24.013 55.040-6.298 143.258 64.205 189.798 38.656 25.498 65.331 36.403 89.19 36.403 19.046 0 39.578-6.605 68.71-22.17 34.406-18.33 61.389-20.685 81.050-20.685 7.782 0 14.848 0.41 21.658 0.819 5.734 0.358 11.11 0.666 16.128 0.666 11.264 0 20.378-1.485 31.078-8.755 19.712-13.466 29.952-43.213 40.755-74.65 16.384-47.718 34.97-101.786 93.952-121.856 7.936-2.714 21.555-7.322 31.232-11.366-8.346-8.602-22.272-21.043-35.942-33.229-8.806-7.885-18.79-16.794-29.85-26.88-31.949-29.133-28.16-63.232-24.781-93.286zM51.251 451.942c5.53-0.973 11.469-2.15 17.613-3.43 28.774-6.144 42.24-11.674 48.128-14.797-2.714-5.274-8.192-13.056-11.827-18.176-12.646-17.971-28.416-40.346-22.426-64.973 4.045-16.64 0.614-37.018-5.274-55.859-16.998 48.026-26.266 99.635-26.266 153.395 0 1.331 0.051 2.611 0.051 3.942zM512-12.8c-175.36 0-328.192 98.509-406.016 243.046 13.414 25.549 38.298 82.074 26.675 131.533 0.819 4.966 9.267 16.947 14.336 24.166 13.875 19.712 31.13 44.186 18.33 70.144-8.96 18.227-32.973 30.515-80.179 41.165-10.957 2.458-21.606 4.454-30.669 6.042 27.443 228.096 222.106 405.453 457.472 405.453 80.794 0 156.774-20.941 222.822-57.6-16.333 7.117-31.13 8.243-43.008 8.243-6.502 0-12.954-0.358-19.2-0.768-6.093-0.358-12.39-0.717-18.637-0.717-14.541 0-32.666 1.741-56.934 14.694-37.069 19.712-64.819 28.16-92.774 28.16-34.611 0-69.734-13.414-117.402-44.851-41.216-27.187-72.243-68.762-87.398-117.146-14.797-47.155-13.21-95.437 4.454-135.885 20.838-47.718 48.333-69.018 89.19-69.018 0 0 0 0 0 0 10.086 0 19.917 1.178 30.31 2.406 10.496 1.229 21.299 2.509 32.512 2.509 13.875 0 26.112-1.946 38.451-6.042 22.477-7.526 39.066-32.717 50.739-77.005s16.077-100.659 20.019-150.323c3.277-41.472 6.349-80.589 13.158-110.131 4.147-17.92 9.472-31.539 16.384-41.626 10.291-15.053 25.037-23.347 41.523-23.347 45.261 0 81.408 14.592 107.469 43.366 21.658 23.91 32.717 53.453 41.626 77.21 5.222 13.978 10.65 28.467 15.923 34.406 58.214 65.382 52.224 119.245 47.821 158.618-3.226 28.877-3.277 39.117 8.397 49.766 10.854 9.882 20.736 18.739 29.44 26.522 18.586 16.589 32 28.57 41.421 38.81 6.451 7.066 21.606 23.603 17.408 44.288-0.051 0.205-0.102 0.358-0.102 0.563 17.562-48.691 27.136-101.171 27.136-155.853 0-254.106-206.694-460.8-460.8-460.8z" />
<glyph unicode="&#xe939;" glyph-name="enter-down" d="M658.125 363.725c-9.984 9.984-26.214 9.984-36.198 0l-109.875-109.875v629.402c0 14.131-11.469 25.6-25.6 25.6s-25.6-11.469-25.6-25.6v-629.402l-109.875 109.875c-9.984 9.984-26.214 9.984-36.198 0s-9.984-26.214 0-36.198l153.6-153.6c5.018-5.018 11.571-7.475 18.125-7.475s13.107 2.509 18.125 7.475l153.6 153.6c9.984 9.984 9.984 26.214 0 36.198zM793.6-64h-614.4c-42.342 0-76.8 34.458-76.8 76.8v512c0 42.342 34.458 76.8 76.8 76.8h204.8c14.131 0 25.6-11.469 25.6-25.6s-11.469-25.6-25.6-25.6h-204.8c-14.131 0-25.6-11.469-25.6-25.6v-512c0-14.131 11.469-25.6 25.6-25.6h614.4c14.131 0 25.6 11.469 25.6 25.6v512c0 14.131-11.469 25.6-25.6 25.6h-204.8c-14.131 0-25.6 11.469-25.6 25.6s11.469 25.6 25.6 25.6h204.8c42.342 0 76.8-34.458 76.8-76.8v-512c0-42.342-34.458-76.8-76.8-76.8z" />
<glyph unicode="&#xe93a;" glyph-name="enter" d="M896 857.6h-460.8c-42.342 0-76.8-34.458-76.8-76.8v-153.6c0-14.131 11.469-25.6 25.6-25.6s25.6 11.469 25.6 25.6v153.6c0 14.131 11.469 25.6 25.6 25.6h387.277l-196.71-84.326c-35.072-15.053-62.566-56.73-62.566-94.874v-486.4h-128c-14.131 0-25.6 11.469-25.6 25.6v153.6c0 14.131-11.469 25.6-25.6 25.6s-25.6-11.469-25.6-25.6v-153.6c0-42.342 34.458-76.8 76.8-76.8h128v-76.8c0-22.17 9.216-41.011 25.344-51.61 8.909-5.837 19.251-8.806 30.157-8.806 8.858 0 18.125 1.946 27.238 5.837l264.294 113.254c35.072 15.053 62.566 56.73 62.566 94.925v614.4c0 42.342-34.458 76.8-76.8 76.8zM921.6 166.4c0-17.971-15.053-40.755-31.539-47.821l-264.294-113.254c-4.915-2.099-8.141-1.946-9.062-1.382s-2.304 3.533-2.304 8.858v614.4c0 17.971 15.053 40.755 31.539 47.821l273.050 117.043c1.69-3.379 2.611-7.219 2.611-11.264v-614.4zM427.725 491.725l-153.6 153.6c-9.984 9.984-26.214 9.984-36.198 0s-9.984-26.214 0-36.198l109.875-109.875h-322.202c-14.131 0-25.6-11.469-25.6-25.6s11.469-25.6 25.6-25.6h322.202l-109.875-109.875c-9.984-9.984-9.984-26.214 0-36.198 5.018-5.018 11.571-7.475 18.125-7.475s13.107 2.509 18.125 7.475l153.6 153.6c9.984 9.984 9.984 26.214 0 36.198z" />
<glyph unicode="&#xe93b;" glyph-name="envelope" d="M896 652.8h-819.2c-42.342 0-76.8-34.458-76.8-76.8v-460.8c0-42.342 34.458-76.8 76.8-76.8h819.2c42.342 0 76.8 34.458 76.8 76.8v460.8c0 42.342-34.458 76.8-76.8 76.8zM896 601.6c1.536 0 2.97-0.154 4.454-0.41l-385.638-257.075c-14.848-9.882-41.933-9.882-56.781 0l-385.638 257.075c1.434 0.256 2.918 0.41 4.454 0.41h819.2zM896 89.6h-819.2c-14.131 0-25.6 11.469-25.6 25.6v438.579l378.419-252.262c15.923-10.598 36.352-15.923 56.781-15.923s40.858 5.325 56.781 15.923l378.419 252.262v-438.579c0-14.131-11.469-25.6-25.6-25.6z" />
<glyph unicode="&#xe93c;" glyph-name="exit-up" d="M793.6-64h-614.4c-42.342 0-76.8 34.458-76.8 76.8v512c0 42.342 34.458 76.8 76.8 76.8h204.8c14.131 0 25.6-11.469 25.6-25.6s-11.469-25.6-25.6-25.6h-204.8c-14.131 0-25.6-11.469-25.6-25.6v-512c0-14.131 11.469-25.6 25.6-25.6h614.4c14.131 0 25.6 11.469 25.6 25.6v512c0 14.131-11.469 25.6-25.6 25.6h-204.8c-14.131 0-25.6 11.469-25.6 25.6s11.469 25.6 25.6 25.6h204.8c42.342 0 76.8-34.458 76.8-76.8v-512c0-42.342-34.458-76.8-76.8-76.8zM658.074 773.325l-153.6 153.6c-9.984 9.984-26.214 9.984-36.198 0l-153.6-153.6c-9.984-9.984-9.984-26.214 0-36.198s26.214-9.984 36.198 0l109.926 109.875v-578.202c0-14.131 11.469-25.6 25.6-25.6s25.6 11.469 25.6 25.6v578.202l109.926-109.875c5.018-5.018 11.571-7.475 18.074-7.475s13.107 2.509 18.074 7.475c9.984 9.984 9.984 26.214 0 36.198z" />
<glyph unicode="&#xe93d;" glyph-name="exit" d="M588.8 550.4c14.131 0 25.6 11.469 25.6 25.6v204.8c0 42.342-34.458 76.8-76.8 76.8h-460.8c-42.342 0-76.8-34.458-76.8-76.8v-614.4c0-38.195 27.494-79.872 62.566-94.874l264.294-113.254c9.114-3.891 18.381-5.837 27.238-5.837 10.906 0 21.299 2.97 30.157 8.806 16.077 10.598 25.344 29.44 25.344 51.61v76.8h128c42.342 0 76.8 34.458 76.8 76.8v204.8c0 14.131-11.469 25.6-25.6 25.6s-25.6-11.469-25.6-25.6v-204.8c0-14.131-11.469-25.6-25.6-25.6h-128v486.4c0 38.195-27.494 79.872-62.566 94.874l-196.71 84.326h387.277c14.131 0 25.6-11.469 25.6-25.6v-204.8c0-14.131 11.469-25.6 25.6-25.6zM326.861 675.021c16.486-7.066 31.539-29.901 31.539-47.821v-614.4c0-5.325-1.434-8.294-2.304-8.858s-4.147-0.717-9.062 1.382l-264.294 113.254c-16.486 7.066-31.539 29.85-31.539 47.821v614.4c0 4.045 0.922 7.834 2.611 11.264l273.050-117.043zM939.725 491.725l-153.6 153.6c-9.984 9.984-26.214 9.984-36.198 0s-9.984-26.214 0-36.198l109.875-109.875h-322.202c-14.131 0-25.6-11.469-25.6-25.6s11.469-25.6 25.6-25.6h322.202l-109.875-109.875c-9.984-9.984-9.984-26.214 0-36.198 5.018-5.018 11.571-7.475 18.125-7.475s13.107 2.509 18.125 7.475l153.6 153.6c9.984 9.984 9.984 26.214 0 36.198z" />
<glyph unicode="&#xe93e;" glyph-name="eye" d="M1017.446 439.501c-2.406 2.714-60.518 66.816-151.347 131.686-53.606 38.298-107.52 68.813-160.256 90.778-66.816 27.853-132.045 41.984-193.843 41.984s-127.027-14.131-193.843-41.984c-52.736-21.965-106.65-52.531-160.256-90.778-90.829-64.87-148.941-129.024-151.347-131.686-8.755-9.728-8.755-24.525 0-34.253 2.406-2.714 60.518-66.816 151.347-131.686 53.606-38.298 107.52-68.813 160.256-90.778 66.816-27.853 132.045-41.984 193.843-41.984s127.027 14.131 193.843 41.984c52.736 21.965 106.65 52.531 160.256 90.778 90.829 64.87 148.941 129.024 151.347 131.686 8.755 9.728 8.755 24.525 0 34.253zM643.789 630.374c46.438-39.066 73.011-95.898 73.011-156.774 0-112.947-91.853-204.8-204.8-204.8s-204.8 91.853-204.8 204.8c0 60.826 26.573 117.709 73.011 156.774 42.086 13.722 86.579 22.426 131.789 22.426s89.702-8.704 131.789-22.426zM835.43 314.573c-78.49-55.91-198.298-122.573-323.43-122.573s-244.941 66.662-323.43 122.573c-59.238 42.189-104.55 84.89-127.437 107.827 22.886 22.938 68.198 65.587 127.437 107.827 27.136 19.354 59.187 39.936 94.72 58.624-17.766-35.226-27.29-74.496-27.29-115.251 0-141.158 114.842-256 256-256s256 114.842 256 256c0 40.755-9.523 80.026-27.29 115.251 35.533-18.688 67.584-39.322 94.72-58.624 59.238-42.189 104.55-84.89 127.437-107.827-22.886-22.938-68.198-65.587-127.437-107.827z" />
<glyph unicode="&#xe93f;" glyph-name="file-add" d="M914.125 670.925l-230.4 230.4c-4.813 4.813-11.315 7.475-18.125 7.475h-486.4c-42.342 0-76.8-34.458-76.8-76.8v-819.2c0-42.342 34.458-76.8 76.8-76.8h665.6c42.342 0 76.8 34.458 76.8 76.8v640c0 6.81-2.714 13.312-7.475 18.125zM859.802 652.8h-168.602c-14.131 0-25.6 11.469-25.6 25.6v168.602l194.202-194.202zM844.8-12.8h-665.6c-14.131 0-25.6 11.469-25.6 25.6v819.2c0 14.131 11.469 25.6 25.6 25.6h435.2v-179.2c0-42.342 34.458-76.8 76.8-76.8h179.2v-588.8c0-14.131-11.469-25.6-25.6-25.6zM588.8 294.4h-128v128c0 14.131-11.469 25.6-25.6 25.6s-25.6-11.469-25.6-25.6v-128h-128c-14.131 0-25.6-11.469-25.6-25.6s11.469-25.6 25.6-25.6h128v-128c0-14.131 11.469-25.6 25.6-25.6s25.6 11.469 25.6 25.6v128h128c14.131 0 25.6 11.469 25.6 25.6s-11.469 25.6-25.6 25.6z" />
<glyph unicode="&#xe940;" glyph-name="file-empty" d="M914.125 670.925l-230.4 230.4c-4.813 4.813-11.315 7.475-18.125 7.475h-486.4c-42.342 0-76.8-34.458-76.8-76.8v-819.2c0-42.342 34.458-76.8 76.8-76.8h665.6c42.342 0 76.8 34.458 76.8 76.8v640c0 6.81-2.714 13.312-7.475 18.125zM859.802 652.8h-168.602c-14.131 0-25.6 11.469-25.6 25.6v168.602l194.202-194.202zM870.4 12.8c0-14.131-11.469-25.6-25.6-25.6h-665.6c-14.131 0-25.6 11.469-25.6 25.6v819.2c0 14.131 11.469 25.6 25.6 25.6h435.2v-179.2c0-42.342 34.458-76.8 76.8-76.8h179.2v-588.8z" />
<glyph unicode="&#xe941;" glyph-name="film-play" d="M384 192c-3.891 0-7.834 0.87-11.469 2.714-8.653 4.352-14.131 13.21-14.131 22.886v460.8c0 9.677 5.478 18.586 14.131 22.886s19.046 3.379 26.829-2.406l307.2-230.4c6.451-4.813 10.24-12.442 10.24-20.48s-3.789-15.667-10.24-20.48l-307.2-230.4c-4.506-3.379-9.933-5.12-15.36-5.12zM409.6 627.2v-358.4l238.95 179.2-238.95 179.2zM998.4 857.6h-972.8c-14.131 0-25.6-11.469-25.6-25.6v-768c0-14.131 11.469-25.6 25.6-25.6h972.8c14.131 0 25.6 11.469 25.6 25.6v768c0 14.131-11.469 25.6-25.6 25.6zM153.6 396.8h-102.4v102.4h102.4v-102.4zM153.6 550.4h-102.4v102.4h102.4v-102.4zM51.2 345.6h102.4v-102.4h-102.4v102.4zM204.8 806.4h614.4v-716.8h-614.4v716.8zM870.4 499.2h102.4v-102.4h-102.4v102.4zM870.4 550.4v102.4h102.4v-102.4h-102.4zM870.4 345.6h102.4v-102.4h-102.4v102.4zM972.8 704h-102.4v102.4h102.4v-102.4zM153.6 806.4v-102.4h-102.4v102.4h102.4zM51.2 192h102.4v-102.4h-102.4v102.4zM870.4 89.6v102.4h102.4v-102.4h-102.4z" />
<glyph unicode="&#xe942;" glyph-name="flag" d="M76.8-12.8c-14.131 0-25.6 11.469-25.6 25.6v768c0 14.131 11.469 25.6 25.6 25.6s25.6-11.469 25.6-25.6v-768c0-14.131-11.469-25.6-25.6-25.6zM179.2 448c-5.325 0-10.752 1.69-15.36 5.12-11.315 8.499-13.619 24.525-5.12 35.84 3.43 4.608 85.811 112.64 199.68 112.64 86.733 0 144.026-30.669 194.611-57.702 44.8-23.962 83.507-44.698 138.189-44.698 112.23 0 192.41 106.496 238.080 190.362-35.738-20.326-81.408-36.762-135.68-36.762-112.998 0-171.366 58.368-222.925 109.875-50.944 50.944-94.925 94.925-186.675 94.925-113.869 0-183.654-91.238-184.32-92.16-8.499-11.315-24.525-13.619-35.84-5.12s-13.619 24.525-5.12 35.84c3.43 4.608 86.067 112.64 225.28 112.64 112.998 0 171.366-58.368 222.925-109.875 50.944-50.944 94.925-94.925 186.675-94.925 113.869 0 183.654 91.238 184.32 92.16 7.526 10.035 21.248 13.158 32.358 7.322s16.384-18.842 12.39-30.771c-1.075-3.277-27.29-80.947-79.77-159.693-31.334-47.002-65.638-84.634-101.939-111.872-47.002-35.226-97.382-53.094-149.76-53.094-67.482 0-115.712 25.805-162.355 50.739-49.664 26.573-96.563 51.661-170.445 51.661-88.576 0-158.054-91.238-158.72-92.16-5.018-6.707-12.698-10.24-20.48-10.24z" />
<glyph unicode="&#xe943;" glyph-name="frame-contract" d="M742.4 499.2h-102.4c-42.342 0-76.8 34.458-76.8 76.8v102.4c0 14.131 11.469 25.6 25.6 25.6s25.6-11.469 25.6-25.6v-102.4c0-14.131 11.469-25.6 25.6-25.6h102.4c14.131 0 25.6-11.469 25.6-25.6s-11.469-25.6-25.6-25.6zM332.8 499.2h-102.4c-14.131 0-25.6 11.469-25.6 25.6s11.469 25.6 25.6 25.6h102.4c14.131 0 25.6 11.469 25.6 25.6v102.4c0 14.131 11.469 25.6 25.6 25.6s25.6-11.469 25.6-25.6v-102.4c0-42.342-34.458-76.8-76.8-76.8zM588.8 140.8c-14.131 0-25.6 11.469-25.6 25.6v102.4c0 42.342 34.458 76.8 76.8 76.8h102.4c14.131 0 25.6-11.469 25.6-25.6s-11.469-25.6-25.6-25.6h-102.4c-14.131 0-25.6-11.469-25.6-25.6v-102.4c0-14.131-11.469-25.6-25.6-25.6zM384 140.8c-14.131 0-25.6 11.469-25.6 25.6v102.4c0 14.131-11.469 25.6-25.6 25.6h-102.4c-14.131 0-25.6 11.469-25.6 25.6s11.469 25.6 25.6 25.6h102.4c42.342 0 76.8-34.458 76.8-76.8v-102.4c0-14.131-11.469-25.6-25.6-25.6z" />
<glyph unicode="&#xe944;" glyph-name="frame-expand" d="M947.2 601.6c-14.131 0-25.6 11.469-25.6 25.6v102.4c0 14.131-11.469 25.6-25.6 25.6h-102.4c-14.131 0-25.6 11.469-25.6 25.6s11.469 25.6 25.6 25.6h102.4c42.342 0 76.8-34.458 76.8-76.8v-102.4c0-14.131-11.469-25.6-25.6-25.6zM25.6 601.6c-14.131 0-25.6 11.469-25.6 25.6v102.4c0 42.342 34.458 76.8 76.8 76.8h102.4c14.131 0 25.6-11.469 25.6-25.6s-11.469-25.6-25.6-25.6h-102.4c-14.131 0-25.6-11.469-25.6-25.6v-102.4c0-14.131-11.469-25.6-25.6-25.6zM179.2 38.4h-102.4c-42.342 0-76.8 34.458-76.8 76.8v102.4c0 14.131 11.469 25.6 25.6 25.6s25.6-11.469 25.6-25.6v-102.4c0-14.131 11.469-25.6 25.6-25.6h102.4c14.131 0 25.6-11.469 25.6-25.6s-11.469-25.6-25.6-25.6zM896 38.4h-102.4c-14.131 0-25.6 11.469-25.6 25.6s11.469 25.6 25.6 25.6h102.4c14.131 0 25.6 11.469 25.6 25.6v102.4c0 14.131 11.469 25.6 25.6 25.6s25.6-11.469 25.6-25.6v-102.4c0-42.342-34.458-76.8-76.8-76.8z" />
<glyph unicode="&#xe945;" glyph-name="funnel" d="M830.976 790.682c-20.275 13.722-48.589 25.805-84.122 35.942-69.939 19.968-162.406 30.976-260.454 30.976s-190.566-11.008-260.454-30.976c-35.533-10.138-63.795-22.221-84.122-35.942-32.614-22.016-39.424-45.363-39.424-61.082v-25.6c0-21.914 16.435-58.010 32.717-82.381l250.419-375.603c12.851-19.251 24.115-56.474 24.115-79.616v-153.6c0-8.858 4.608-17.101 12.134-21.76 4.096-2.56 8.755-3.84 13.466-3.84 3.891 0 7.834 0.922 11.469 2.714l102.4 51.2c8.653 4.352 14.131 13.21 14.131 22.886v102.4c0 23.142 11.264 60.365 24.115 79.616l250.419 375.603c16.23 24.371 32.717 60.518 32.717 82.381v25.6c0 15.718-6.861 39.066-39.424 61.082zM240.026 777.37c65.485 18.688 152.986 29.030 246.374 29.030s180.941-10.291 246.374-29.030c70.554-20.173 86.426-41.779 86.426-47.77s-15.872-27.648-86.426-47.77c-65.485-18.688-152.986-29.030-246.374-29.030s-180.941 10.291-246.374 29.030c-70.554 20.173-86.426 41.779-86.426 47.77s15.872 27.648 86.426 47.77zM544.717 274.381c-18.33-27.494-32.717-74.957-32.717-107.981v-86.579l-51.2-25.6v112.179c0 33.075-14.387 80.486-32.717 107.981l-249.856 374.784c14.029-5.99 29.952-11.571 47.718-16.589 69.939-19.968 162.406-30.976 260.454-30.976s190.566 11.008 260.454 30.976c17.715 5.069 33.69 10.598 47.718 16.64l-249.856-374.784z" />
<glyph unicode="&#xe946;" glyph-name="gift" d="M947.2 704h-153.651c16.128 21.402 25.651 48.026 25.651 76.8 0 70.554-57.446 128-128 128-71.168 0-130.867-56.371-160.102-90.010-17.715-20.326-32.973-42.138-44.698-63.232-11.725 21.094-26.982 42.854-44.698 63.232-29.235 33.587-88.934 90.010-160.102 90.010-70.554 0-128-57.446-128-128 0-28.774 9.574-55.398 25.651-76.8h-153.651c-14.131 0-25.6-11.469-25.6-25.6v-153.6c0-14.131 11.469-25.6 25.6-25.6h25.6v-486.4c0-42.342 34.458-76.8 76.8-76.8h716.8c42.342 0 76.8 34.458 76.8 76.8v486.4h25.6c14.131 0 25.6 11.469 25.6 25.6v153.6c0 14.131-11.469 25.6-25.6 25.6zM569.702 785.203c40.038 46.029 84.326 72.397 121.498 72.397 42.342 0 76.8-34.458 76.8-76.8s-34.458-76.8-76.8-76.8h-172.954c8.858 22.63 26.778 52.838 51.456 81.203zM563.2-12.8h-153.6v665.6h153.6v-665.6zM204.8 780.8c0 42.342 34.458 76.8 76.8 76.8 37.171 0 81.459-26.368 121.498-72.397 24.678-28.365 42.598-58.573 51.456-81.203h-172.954c-42.342 0-76.8 34.458-76.8 76.8zM51.2 652.8h307.2v-102.4h-307.2v102.4zM102.4 12.8v486.4h256v-512h-230.4c-14.131 0-25.6 11.469-25.6 25.6zM870.4 12.8c0-14.131-11.469-25.6-25.6-25.6h-230.4v512h256v-486.4zM921.6 550.4h-307.2v102.4h307.2v-102.4z" />
<glyph unicode="&#xe947;" glyph-name="graduation-hat" d="M955.29 600.269l-460.8 153.6c-5.274 1.741-10.957 1.741-16.179 0l-460.8-153.6c-10.445-3.482-17.51-13.261-17.51-24.269s7.066-20.787 17.51-24.269l136.090-45.363v-135.168c0-6.81 2.714-13.312 7.475-18.125 4.506-4.506 112.333-109.875 325.325-109.875 77.466 0 149.709 13.926 214.784 41.421 13.005 5.478 19.098 20.531 13.619 33.536s-20.531 19.098-33.536 13.619c-58.726-24.832-124.262-37.376-194.816-37.376-99.584 0-172.851 25.805-216.781 47.411-32.512 16.026-54.272 32.205-64.819 40.909v106.547l273.51-91.187c2.611-0.87 5.376-1.331 8.090-1.331s5.478 0.461 8.090 1.331l273.51 91.187v-45.67c-29.798-10.547-51.2-39.014-51.2-72.397 0-31.283 18.79-58.214 45.67-70.195l-44.902-179.61c-1.894-7.629-0.205-15.77 4.659-21.965s12.288-9.83 20.173-9.83h102.4c7.885 0 15.309 3.635 20.173 9.83s6.554 14.336 4.659 21.965l-44.902 179.61c26.88 11.981 45.67 38.912 45.67 70.195 0 33.382-21.402 61.85-51.2 72.397v62.771l136.090 45.363c10.445 3.482 17.51 13.261 17.51 24.269s-7.066 20.787-17.51 24.269zM793.6 396.8c14.131 0 25.6-11.469 25.6-25.6s-11.469-25.6-25.6-25.6-25.6 11.469-25.6 25.6 11.469 25.6 25.6 25.6zM775.168 140.8l18.432 73.626 18.432-73.626h-36.813zM791.552 551.117l-300.902 50.176c-13.978 2.304-27.136-7.117-29.44-21.043s7.117-27.136 21.043-29.44l205.517-34.253-201.318-67.123-379.853 126.618 379.853 126.618 379.853-126.618-74.701-24.883z" />
<glyph unicode="&#xe948;" glyph-name="hand" d="M870.4 755.2c-18.637 0-36.147-5.018-51.2-13.773v64.973c0 56.474-45.926 102.4-102.4 102.4-21.094 0-40.653-6.4-56.986-17.357-14.029 39.885-52.019 68.557-96.614 68.557s-82.637-28.672-96.614-68.557c-16.282 10.957-35.891 17.357-56.986 17.357-56.474 0-102.4-45.926-102.4-102.4v-377.498l-68.915 119.45c-13.363 24.32-35.174 41.626-61.389 48.794-25.549 6.963-52.122 3.277-74.854-10.342-46.438-27.853-64.154-90.829-39.424-140.39 1.536-3.123 34.202-70.042 136.192-273.92 48.026-96 100.71-164.659 156.621-203.981 43.878-30.874 74.189-32.461 79.821-32.461h256c43.571 0 84.070 14.182 120.422 42.086 34.15 26.266 63.795 64.256 88.064 112.845 47.821 95.642 73.114 227.942 73.114 382.669v179.2c0 56.474-45.926 102.4-102.4 102.4zM921.6 473.6c0-146.79-23.398-271.155-67.686-359.731-28.877-57.754-80.589-126.669-162.714-126.669h-255.488c-1.997 0.154-23.552 2.56-56.064 26.88-32.41 24.269-82.176 75.366-135.066 181.248-103.782 207.565-135.68 272.947-135.987 273.562-0.051 0.102-0.051 0.154-0.102 0.205-12.851 25.754-3.738 59.494 19.917 73.677 10.65 6.4 23.091 8.090 35.072 4.864 12.749-3.482 23.45-12.083 30.054-24.166 0.102-0.154 0.205-0.358 0.307-0.512l79.923-138.496c16.333-29.85 34.714-42.394 54.63-37.325 19.968 5.069 30.054 25.037 30.054 59.238v400.026c0 28.211 22.989 51.2 51.2 51.2s51.2-22.989 51.2-51.2v-332.8c0-14.131 11.469-25.6 25.6-25.6s25.6 11.469 25.6 25.6v384c0 28.211 22.989 51.2 51.2 51.2s51.2-22.989 51.2-51.2v-384c0-14.131 11.469-25.6 25.6-25.6s25.6 11.469 25.6 25.6v332.8c0 28.211 22.989 51.2 51.2 51.2s51.2-22.989 51.2-51.2v-384c0-14.131 11.469-25.6 25.6-25.6s25.6 11.469 25.6 25.6v230.4c0 28.211 22.989 51.2 51.2 51.2s51.2-22.989 51.2-51.2v-179.2z" />
<glyph unicode="&#xe949;" glyph-name="heart-pulse" d="M486.4-12.8c-4.301 0-8.55 1.075-12.442 3.226-5.939 3.328-147.302 82.483-274.893 208.998-10.035 9.933-10.086 26.163-0.154 36.198s26.163 10.086 36.198 0.154c101.325-100.454 214.323-171.315 251.29-193.331 37.018 22.067 150.118 93.030 251.29 193.331 10.035 9.933 26.266 9.882 36.198-0.154s9.882-26.266-0.154-36.198c-127.642-126.515-268.954-205.67-274.893-208.998-3.891-2.15-8.141-3.226-12.442-3.226zM65.485 396.8c-9.626 0-18.842 5.427-23.194 14.694-28.058 59.648-42.291 119.296-42.291 177.306 0 148.224 120.576 268.8 268.8 268.8 50.176 0 103.475-18.79 150.067-52.941 27.238-19.968 50.432-44.032 67.533-69.581 17.101 25.549 40.294 49.613 67.533 69.581 46.592 34.15 99.891 52.941 150.067 52.941 148.224 0 268.8-120.576 268.8-268.8 0-58.010-14.234-117.658-42.291-177.306-6.042-12.8-21.248-18.278-34.048-12.288s-18.278 21.248-12.288 34.048c24.832 52.787 37.427 105.114 37.427 155.494 0 119.962-97.638 217.6-217.6 217.6-87.194 0-171.878-71.731-193.331-136.090-3.482-10.445-13.261-17.51-24.269-17.51s-20.787 7.066-24.269 17.51c-21.453 64.358-106.138 136.090-193.331 136.090-119.962 0-217.6-97.638-217.6-217.6 0-50.381 12.595-102.707 37.427-155.494 6.042-12.8 0.512-28.058-12.288-34.048-3.533-1.638-7.219-2.458-10.854-2.458zM538.368 192c-0.256 0-0.461 0-0.666 0-10.342 0.205-29.133 5.581-38.554 39.219l-62.31 221.901-41.318-167.885c-8.090-32.922-26.88-39.834-37.376-40.96s-30.31 1.382-45.517 31.744l-31.027 62.003c-1.485 2.97-2.867 4.813-3.891 5.99-0.154-0.205-0.358-0.461-0.563-0.768-18.944-27.802-61.030-48.794-97.946-48.794h-51.2c-14.131 0-25.6 11.469-25.6 25.6s11.469 25.6 25.6 25.6h51.2c21.555 0 47.155 13.926 55.654 26.419 11.418 16.742 28.006 25.651 45.619 24.474 19.149-1.28 36.25-14.285 46.95-35.635l22.784-45.568 47.923 194.714c8.090 32.768 24.678 39.885 37.171 40.090s29.286-6.4 38.451-38.912l65.741-234.291 60.314 184.73c10.496 32.154 29.798 37.683 40.346 38.144s30.208-3.482 43.366-34.662l37.069-88.013c6.963-16.486 29.594-31.539 47.462-31.539h76.8c14.131 0 25.6-11.469 25.6-25.6s-11.469-25.6-25.6-25.6h-76.8c-38.246 0-79.821 27.597-94.669 62.874l-30.31 71.987-65.229-199.68c-10.598-32.461-28.979-37.53-39.475-37.53z" />
<glyph unicode="&#xe94a;" glyph-name="heart" d="M486.4-12.8c-4.301 0-8.55 1.075-12.442 3.226-4.813 2.662-119.091 66.611-235.11 171.366-68.659 61.952-123.443 125.338-162.97 188.416-50.381 80.435-75.878 160.717-75.878 238.592 0 148.224 120.576 268.8 268.8 268.8 50.176 0 103.475-18.79 150.067-52.941 27.238-19.968 50.432-44.032 67.533-69.581 17.101 25.549 40.294 49.613 67.533 69.581 46.592 34.15 99.891 52.941 150.067 52.941 148.224 0 268.8-120.576 268.8-268.8 0-77.875-25.549-158.157-75.878-238.592-39.475-63.078-94.31-126.464-162.918-188.416-116.019-104.755-230.298-168.704-235.11-171.366-3.891-2.15-8.141-3.226-12.442-3.226zM268.8 806.4c-119.962 0-217.6-97.638-217.6-217.6 0-155.648 120.32-297.062 221.235-388.352 90.112-81.51 181.453-138.65 213.965-158.054 32.512 19.405 123.853 76.544 213.965 158.054 100.915 91.238 221.235 232.704 221.235 388.352 0 119.962-97.638 217.6-217.6 217.6-87.194 0-171.878-71.731-193.331-136.090-3.482-10.445-13.261-17.51-24.269-17.51s-20.787 7.066-24.269 17.51c-21.453 64.358-106.138 136.090-193.331 136.090z" />
<glyph unicode="&#xe94b;" glyph-name="highlight" d="M1016.525 466.125c-9.984 9.984-26.214 9.984-36.198 0l-183.603-183.603c-29.952-29.952-78.694-29.952-108.595 0l-239.206 239.206c-14.438 14.438-22.374 33.69-22.374 54.323s7.936 39.885 22.374 54.323l183.603 183.603c9.984 9.984 9.984 26.214 0 36.198s-26.214 9.984-36.198 0l-183.603-183.603c-24.115-24.115-37.376-56.218-37.376-90.522 0-14.592 2.458-28.826 7.066-42.189l-374.886-374.886c-4.813-4.813-7.475-11.315-7.475-18.125v-76.8c0-14.131 11.469-25.6 25.6-25.6h486.4c6.81 0 13.312 2.714 18.125 7.475l170.086 170.086c13.363-4.659 27.597-7.066 42.189-7.066 34.253 0 66.406 13.261 90.522 37.376l183.603 183.603c9.984 9.984 9.984 26.214 0 36.198zM501.402 89.6h-450.202v40.602l358.502 358.502c1.024-1.075 1.997-2.15 3.021-3.174l239.206-239.206c1.024-1.024 2.099-2.048 3.174-3.021l-153.702-153.702z" />
<glyph unicode="&#xe94c;" glyph-name="history" d="M874.035 810.035c-96.717 96.717-225.28 149.965-362.035 149.965-158.413 0-305.92-72.96-402.074-194.918v66.918c0 14.131-11.469 25.6-25.6 25.6s-25.6-11.469-25.6-25.6v-152.166c0-11.725 7.936-21.914 19.302-24.832 4.966-1.28 9.984-0.973 14.541 0.563v0l146.074 49.766c13.363 4.557 20.531 19.098 15.974 32.461s-19.098 20.531-32.461 15.974l-76.288-26.010c86.426 113.050 221.184 180.941 366.182 180.941 254.106 0 460.8-206.694 460.8-460.8s-206.694-460.8-460.8-460.8c-169.779 0-325.325 92.928-405.914 242.534-6.707 12.442-22.221 17.101-34.662 10.394s-17.101-22.221-10.394-34.662c89.549-166.195 262.4-269.466 451.021-269.466 136.755 0 265.318 53.248 362.035 149.965s149.965 225.28 149.965 362.035c0 136.755-53.248 265.318-149.965 362.035zM512 422.4c-4.301 0-8.55 1.075-12.442 3.226l-230.4 128c-12.339 6.861-16.794 22.426-9.933 34.816s22.426 16.794 34.816 9.933l217.088-120.576 268.749 171.008c11.93 7.578 27.75 4.096 35.328-7.834s4.096-27.75-7.834-35.328l-281.6-179.2c-4.198-2.662-8.96-3.994-13.722-3.994z" />
<glyph unicode="&#xe94d;" glyph-name="home" d="M1017.395 337.152l-452.045 499.61c-14.029 15.514-32.973 24.064-53.35 24.064 0 0 0 0 0 0-20.326 0-39.27-8.55-53.35-24.064l-452.045-499.61c-9.472-10.496-8.653-26.675 1.792-36.147 4.915-4.454 11.059-6.605 17.152-6.605 6.963 0 13.926 2.816 18.995 8.448l109.005 120.474v-410.522c0-42.342 34.458-76.8 76.8-76.8h563.2c42.342 0 76.8 34.458 76.8 76.8v410.522l109.005-120.474c9.472-10.496 25.651-11.315 36.147-1.792s11.315 25.651 1.792 36.147zM614.4-12.8h-204.8v230.4c0 14.131 11.469 25.6 25.6 25.6h153.6c14.131 0 25.6-11.469 25.6-25.6v-230.4zM819.2 12.8c0-14.131-11.469-25.6-25.6-25.6h-128v230.4c0 42.342-34.458 76.8-76.8 76.8h-153.6c-42.342 0-76.8-34.458-76.8-76.8v-230.4h-128c-14.131 0-25.6 11.469-25.6 25.6v467.098l291.84 322.56c4.198 4.659 9.677 7.219 15.36 7.219s11.162-2.56 15.36-7.219l291.84-322.56v-467.098z" />
<glyph unicode="&#xe94e;" glyph-name="hourglass" d="M819.2 780.8v25.6c0 20.070-12.339 37.53-36.71 51.917-17.613 10.394-42.035 19.558-72.653 27.187-60.006 15.002-139.366 23.245-223.437 23.245s-163.43-8.243-223.437-23.245c-30.618-7.629-55.040-16.794-72.653-27.187-24.371-14.387-36.71-31.846-36.71-51.917v-25.6c0-134.707 81.562-255.949 204.8-307.302v-102.246c-123.238-51.354-204.8-172.595-204.8-307.302v-25.6c0-20.070 12.339-37.53 36.71-51.917 17.613-10.394 42.035-19.558 72.653-27.187 60.006-15.002 139.366-23.245 223.437-23.245s163.43 8.243 223.437 23.245c30.618 7.629 55.040 16.794 72.653 27.187 24.371 14.387 36.71 31.898 36.71 51.917v25.6c0 134.707-81.562 255.949-204.8 307.302v102.246c123.238 51.354 204.8 172.595 204.8 307.302zM287.334 838.707c54.579 12.186 125.286 18.893 199.066 18.893s144.538-6.707 199.066-18.893c58.88-13.158 76.698-27.341 81.357-32.307-4.659-4.966-22.477-19.149-81.357-32.307-54.579-12.186-125.286-18.893-199.066-18.893s-144.538 6.707-199.066 18.893c-58.88 13.158-76.698 27.341-81.357 32.307 4.659 4.966 22.477 19.149 81.357 32.307zM580.25 329.574c112.282-39.68 187.75-146.432 187.75-265.574v-24.218c-2.15-2.918-16.589-18.944-82.534-33.638-54.579-12.186-125.286-18.893-199.066-18.893s-144.538 6.707-199.066 18.893c-65.894 14.746-80.384 30.72-82.534 33.638v24.218c0 119.142 75.418 225.894 187.75 265.574 10.24 3.635 17.050 13.261 17.050 24.115v137.37c0 10.854-6.861 20.531-17.050 24.115-101.171 35.789-172.442 126.003-185.549 230.707 15.36-6.912 34.099-13.158 55.962-18.637 60.006-15.002 139.366-23.245 223.437-23.245s163.43 8.243 223.437 23.245c21.914 5.478 40.653 11.725 55.962 18.637-13.107-104.704-84.326-194.918-185.549-230.707-10.24-3.635-17.050-13.312-17.050-24.115v-137.37c0-10.854 6.861-20.531 17.050-24.115zM699.75 113.715c-115.814 40.909-187.75 139.571-187.75 257.485v154.88c30.72 3.021 60.314 11.52 88.218 25.344 12.646 6.298 17.818 21.658 11.52 34.304s-21.658 17.818-34.304 11.52c-28.416-14.131-59.034-21.299-91.034-21.299s-62.618 7.168-91.034 21.299c-12.646 6.298-28.006 1.126-34.304-11.52s-1.126-28.006 11.52-34.304c27.904-13.875 57.446-22.323 88.218-25.344v-154.88c0-117.862-71.936-216.525-187.75-257.485-10.752-3.789-17.715-14.285-16.998-25.651s8.806-20.941 19.968-23.45c50.278-11.264 126.822-26.214 210.381-26.214s160.102 14.95 210.381 26.214c11.162 2.509 19.302 12.083 19.968 23.45s-6.246 21.862-16.998 25.651zM486.4 89.6c-44.902 0-87.091 4.454-124.774 10.496 34.048 21.555 63.693 48.742 87.603 80.64 15.002 20.019 27.443 41.574 37.171 64.205 9.728-22.63 22.17-44.186 37.171-64.205 23.859-31.846 53.504-59.034 87.603-80.64-37.683-5.99-79.872-10.496-124.774-10.496z" />
<glyph unicode="&#xe94f;" glyph-name="inbox" d="M1001.318 428.39l-138.138 315.802c-15.258 34.918-57.088 62.259-95.181 62.259h-512c-38.093 0-79.923-27.341-95.181-62.259l-138.138-315.802c-12.698-29.082-22.682-76.646-22.682-108.39v-204.8c0-42.342 34.458-76.8 76.8-76.8h870.4c42.342 0 76.8 34.458 76.8 76.8v204.8c0 31.693-9.933 79.309-22.682 108.39zM207.718 723.61c7.219 16.538 30.259 31.59 48.282 31.59h512c18.022 0 41.062-15.053 48.282-31.59l138.138-315.802c1.536-3.533 3.072-7.578 4.557-11.93-3.84 0.614-7.782 0.922-11.776 0.922h-307.2c-14.131 0-25.6-11.469-25.6-25.6v-25.6c0-56.474-45.926-102.4-102.4-102.4s-102.4 45.926-102.4 102.4v25.6c0 14.131-11.469 25.6-25.6 25.6h-307.2c-3.994 0-7.936-0.307-11.776-0.922 1.485 4.352 2.97 8.397 4.557 11.93l138.138 315.802zM972.8 115.2c0-14.131-11.469-25.6-25.6-25.6h-870.4c-14.131 0-25.6 11.469-25.6 25.6v204.8c0 14.131 11.469 25.6 25.6 25.6h281.6c0-84.685 68.915-153.6 153.6-153.6s153.6 68.915 153.6 153.6h281.6c14.131 0 25.6-11.469 25.6-25.6v-204.8z" />
<glyph unicode="&#xe950;" glyph-name="indent-decrease" d="M896 704h-768c-14.131 0-25.6 11.469-25.6 25.6s11.469 25.6 25.6 25.6h768c14.131 0 25.6-11.469 25.6-25.6s-11.469-25.6-25.6-25.6zM896 550.4h-409.6c-14.131 0-25.6 11.469-25.6 25.6s11.469 25.6 25.6 25.6h409.6c14.131 0 25.6-11.469 25.6-25.6s-11.469-25.6-25.6-25.6zM896 396.8h-409.6c-14.131 0-25.6 11.469-25.6 25.6s11.469 25.6 25.6 25.6h409.6c14.131 0 25.6-11.469 25.6-25.6s-11.469-25.6-25.6-25.6zM896 243.2h-409.6c-14.131 0-25.6 11.469-25.6 25.6s11.469 25.6 25.6 25.6h409.6c14.131 0 25.6-11.469 25.6-25.6s-11.469-25.6-25.6-25.6zM896 89.6h-768c-14.131 0-25.6 11.469-25.6 25.6s11.469 25.6 25.6 25.6h768c14.131 0 25.6-11.469 25.6-25.6s-11.469-25.6-25.6-25.6zM332.8 243.2c-5.427 0-10.854 1.741-15.36 5.12l-204.8 153.6c-6.451 4.813-10.24 12.442-10.24 20.48s3.789 15.667 10.24 20.48l204.8 153.6c7.782 5.837 18.125 6.758 26.829 2.406s14.131-13.21 14.131-22.886v-307.2c0-9.677-5.478-18.586-14.131-22.886-3.635-1.792-7.526-2.714-11.469-2.714zM170.65 422.4l136.55-102.4v204.8l-136.55-102.4z" />
<glyph unicode="&#xe951;" glyph-name="indent-increase" d="M896 704h-768c-14.131 0-25.6 11.469-25.6 25.6s11.469 25.6 25.6 25.6h768c14.131 0 25.6-11.469 25.6-25.6s-11.469-25.6-25.6-25.6zM896 550.4h-409.6c-14.131 0-25.6 11.469-25.6 25.6s11.469 25.6 25.6 25.6h409.6c14.131 0 25.6-11.469 25.6-25.6s-11.469-25.6-25.6-25.6zM896 396.8h-409.6c-14.131 0-25.6 11.469-25.6 25.6s11.469 25.6 25.6 25.6h409.6c14.131 0 25.6-11.469 25.6-25.6s-11.469-25.6-25.6-25.6zM896 243.2h-409.6c-14.131 0-25.6 11.469-25.6 25.6s11.469 25.6 25.6 25.6h409.6c14.131 0 25.6-11.469 25.6-25.6s-11.469-25.6-25.6-25.6zM896 89.6h-768c-14.131 0-25.6 11.469-25.6 25.6s11.469 25.6 25.6 25.6h768c14.131 0 25.6-11.469 25.6-25.6s-11.469-25.6-25.6-25.6zM128 243.2c-3.891 0-7.834 0.87-11.469 2.714-8.653 4.352-14.131 13.21-14.131 22.886v307.2c0 9.677 5.478 18.586 14.131 22.886s19.046 3.379 26.829-2.406l204.8-153.6c6.451-4.813 10.24-12.442 10.24-20.48s-3.789-15.667-10.24-20.48l-204.8-153.6c-4.506-3.379-9.933-5.12-15.36-5.12zM153.6 524.8v-204.8l136.55 102.4-136.55 102.4z" />
<glyph unicode="&#xe952;" glyph-name="italic" d="M793.6 857.6h-204.851c-0.051 0-0.154 0-0.205 0h-204.544c-14.131 0-25.6-11.469-25.6-25.6s11.469-25.6 25.6-25.6h173.568l-143.36-716.8h-183.808c-14.131 0-25.6-11.469-25.6-25.6s11.469-25.6 25.6-25.6h204.749c0.051 0 0.051 0 0.102 0s0.051 0 0.102 0h204.646c14.131 0 25.6 11.469 25.6 25.6s-11.469 25.6-25.6 25.6h-173.568l143.36 716.8h183.808c14.131 0 25.6 11.469 25.6 25.6s-11.469 25.6-25.6 25.6z" />
<glyph unicode="&#xe953;" glyph-name="keyboard" d="M896 140.8h-819.2c-42.342 0-76.8 34.458-76.8 76.8v409.6c0 42.342 34.458 76.8 76.8 76.8h819.2c42.342 0 76.8-34.458 76.8-76.8v-409.6c0-42.342-34.458-76.8-76.8-76.8zM76.8 652.8c-14.131 0-25.6-11.469-25.6-25.6v-409.6c0-14.131 11.469-25.6 25.6-25.6h819.2c14.131 0 25.6 11.469 25.6 25.6v409.6c0 14.131-11.469 25.6-25.6 25.6h-819.2zM179.2 550.4h-51.2c-14.131 0-25.6 11.469-25.6 25.6s11.469 25.6 25.6 25.6h51.2c14.131 0 25.6-11.469 25.6-25.6s-11.469-25.6-25.6-25.6zM844.8 550.4h-51.2c-14.131 0-25.6 11.469-25.6 25.6s11.469 25.6 25.6 25.6h51.2c14.131 0 25.6-11.469 25.6-25.6s-11.469-25.6-25.6-25.6zM230.4 448h-102.4c-14.131 0-25.6 11.469-25.6 25.6s11.469 25.6 25.6 25.6h102.4c14.131 0 25.6-11.469 25.6-25.6s-11.469-25.6-25.6-25.6zM179.2 243.2h-51.2c-14.131 0-25.6 11.469-25.6 25.6s11.469 25.6 25.6 25.6h51.2c14.131 0 25.6-11.469 25.6-25.6s-11.469-25.6-25.6-25.6zM588.8 243.2h-307.2c-14.131 0-25.6 11.469-25.6 25.6s11.469 25.6 25.6 25.6h307.2c14.131 0 25.6-11.469 25.6-25.6s-11.469-25.6-25.6-25.6zM742.4 243.2h-51.2c-14.131 0-25.6 11.469-25.6 25.6s11.469 25.6 25.6 25.6h51.2c14.131 0 25.6-11.469 25.6-25.6s-11.469-25.6-25.6-25.6zM844.8 345.6h-153.6c-14.131 0-25.6 11.469-25.6 25.6s11.469 25.6 25.6 25.6h128v76.8c0 14.131 11.469 25.6 25.6 25.6s25.6-11.469 25.6-25.6v-102.4c0-14.131-11.469-25.6-25.6-25.6zM281.6 345.6h-153.6c-14.131 0-25.6 11.469-25.6 25.6s11.469 25.6 25.6 25.6h153.6c14.131 0 25.6-11.469 25.6-25.6s-11.469-25.6-25.6-25.6zM307.2 576c0-14.131-11.469-25.6-25.6-25.6s-25.6 11.469-25.6 25.6c0 14.131 11.469 25.6 25.6 25.6s25.6-11.469 25.6-25.6zM409.6 576c0-14.131-11.469-25.6-25.6-25.6s-25.6 11.469-25.6 25.6c0 14.131 11.469 25.6 25.6 25.6s25.6-11.469 25.6-25.6zM512 576c0-14.131-11.469-25.6-25.6-25.6s-25.6 11.469-25.6 25.6c0 14.131 11.469 25.6 25.6 25.6s25.6-11.469 25.6-25.6zM614.4 576c0-14.131-11.469-25.6-25.6-25.6s-25.6 11.469-25.6 25.6c0 14.131 11.469 25.6 25.6 25.6s25.6-11.469 25.6-25.6zM716.8 576c0-14.131-11.469-25.6-25.6-25.6s-25.6 11.469-25.6 25.6c0 14.131 11.469 25.6 25.6 25.6s25.6-11.469 25.6-25.6zM358.4 473.6c0-14.131-11.469-25.6-25.6-25.6s-25.6 11.469-25.6 25.6c0 14.131 11.469 25.6 25.6 25.6s25.6-11.469 25.6-25.6zM460.8 473.6c0-14.131-11.469-25.6-25.6-25.6s-25.6 11.469-25.6 25.6c0 14.131 11.469 25.6 25.6 25.6s25.6-11.469 25.6-25.6zM563.2 473.6c0-14.131-11.469-25.6-25.6-25.6s-25.6 11.469-25.6 25.6c0 14.131 11.469 25.6 25.6 25.6s25.6-11.469 25.6-25.6zM665.6 473.6c0-14.131-11.469-25.6-25.6-25.6s-25.6 11.469-25.6 25.6c0 14.131 11.469 25.6 25.6 25.6s25.6-11.469 25.6-25.6zM768 473.6c0-14.131-11.469-25.6-25.6-25.6s-25.6 11.469-25.6 25.6c0 14.131 11.469 25.6 25.6 25.6s25.6-11.469 25.6-25.6zM409.6 371.2c0-14.131-11.469-25.6-25.6-25.6s-25.6 11.469-25.6 25.6c0 14.131 11.469 25.6 25.6 25.6s25.6-11.469 25.6-25.6zM512 371.2c0-14.131-11.469-25.6-25.6-25.6s-25.6 11.469-25.6 25.6c0 14.131 11.469 25.6 25.6 25.6s25.6-11.469 25.6-25.6zM614.4 371.2c0-14.131-11.469-25.6-25.6-25.6s-25.6 11.469-25.6 25.6c0 14.131 11.469 25.6 25.6 25.6s25.6-11.469 25.6-25.6z" />
<glyph unicode="&#xe954;" glyph-name="laptop-phone" d="M588.8 243.2h-409.6c-42.342 0-76.8 34.458-76.8 76.8v409.6c0 42.342 34.458 76.8 76.8 76.8h665.6c42.342 0 76.8-34.458 76.8-76.8v-51.2c0-14.131-11.469-25.6-25.6-25.6s-25.6 11.469-25.6 25.6v51.2c0 14.131-11.469 25.6-25.6 25.6h-665.6c-14.131 0-25.6-11.469-25.6-25.6v-409.6c0-14.131 11.469-25.6 25.6-25.6h409.6c14.131 0 25.6-11.469 25.6-25.6s-11.469-25.6-25.6-25.6zM588.8 38.4h-512c-42.342 0-76.8 34.458-76.8 76.8v51.2c0 14.131 11.469 25.6 25.6 25.6h563.2c14.131 0 25.6-11.469 25.6-25.6s-11.469-25.6-25.6-25.6h-537.6v-25.6c0-14.131 11.469-25.6 25.6-25.6h512c14.131 0 25.6-11.469 25.6-25.6s-11.469-25.6-25.6-25.6zM947.2 38.4h-204.8c-42.342 0-76.8 34.458-76.8 76.8v409.6c0 42.342 34.458 76.8 76.8 76.8h204.8c42.342 0 76.8-34.458 76.8-76.8v-409.6c0-42.342-34.458-76.8-76.8-76.8zM742.4 550.4c-14.131 0-25.6-11.469-25.6-25.6v-409.6c0-14.131 11.469-25.6 25.6-25.6h204.8c14.131 0 25.6 11.469 25.6 25.6v409.6c0 14.131-11.469 25.6-25.6 25.6h-204.8zM844.8 140.8c-6.758 0-13.312 2.714-18.074 7.526s-7.526 11.366-7.526 18.074 2.714 13.363 7.526 18.074c4.762 4.762 11.366 7.526 18.074 7.526s13.363-2.714 18.074-7.526c4.762-4.762 7.526-11.366 7.526-18.074s-2.714-13.363-7.526-18.074c-4.762-4.762-11.366-7.526-18.074-7.526z" />
<glyph unicode="&#xe955;" glyph-name="laptop" d="M179.2 243.2h665.6c42.342 0 76.8 34.458 76.8 76.8v409.6c0 42.342-34.458 76.8-76.8 76.8h-665.6c-42.342 0-76.8-34.458-76.8-76.8v-409.6c0-42.342 34.458-76.8 76.8-76.8zM153.6 729.6c0 14.131 11.469 25.6 25.6 25.6h665.6c14.131 0 25.6-11.469 25.6-25.6v-409.6c0-14.131-11.469-25.6-25.6-25.6h-665.6c-14.131 0-25.6 11.469-25.6 25.6v409.6zM998.4 192h-972.8c-14.131 0-25.6-11.469-25.6-25.6v-51.2c0-42.342 34.458-76.8 76.8-76.8h870.4c42.342 0 76.8 34.458 76.8 76.8v51.2c0 14.131-11.469 25.6-25.6 25.6zM947.2 89.6h-870.4c-14.131 0-25.6 11.469-25.6 25.6v25.6h921.6v-25.6c0-14.131-11.469-25.6-25.6-25.6z" />
<glyph unicode="&#xe956;" glyph-name="layers" d="M512 345.6c-3.379 0-6.758 0.666-9.933 1.997l-486.4 204.8c-9.472 3.994-15.667 13.312-15.667 23.603s6.195 19.61 15.667 23.603l486.4 204.8c6.349 2.662 13.517 2.662 19.866 0l486.4-204.8c9.472-3.994 15.667-13.312 15.667-23.603s-6.195-19.61-15.667-23.603l-486.4-204.8c-3.174-1.331-6.554-1.997-9.933-1.997zM91.546 576l420.454-176.998 420.454 176.998-420.454 176.998-420.454-176.998zM512 192c-3.379 0-6.758 0.666-9.933 1.997l-486.4 204.8c-13.005 5.478-19.149 20.48-13.67 33.536s20.48 19.149 33.536 13.67l476.467-200.602 476.467 200.602c13.005 5.478 28.058-0.614 33.536-13.67s-0.614-28.058-13.67-33.536l-486.4-204.8c-3.174-1.331-6.554-1.997-9.933-1.997zM512 38.4c-3.379 0-6.758 0.666-9.933 1.997l-486.4 204.8c-13.005 5.478-19.149 20.48-13.67 33.536s20.48 19.149 33.536 13.67l476.467-200.602 476.467 200.602c13.005 5.478 28.058-0.614 33.536-13.67s-0.614-28.058-13.67-33.536l-486.4-204.8c-3.174-1.331-6.554-1.997-9.933-1.997z" />
</font>
</defs>
</svg>
